Криминальное чтиво / Pulp Fiction (1994) BDRip 1080p | Remastered

 
Автор Сообщение

sergej644 ®

Пол:

Стаж: 4 года 11 месяцев

Сообщений: 6038

Откуда: Soviet Union



Награды: Нет

Торрент-статистика

Создавать темы 16-Фев-2015 19:04

[Цитировать]

Криминальное чтиво / Pulp Fiction
«Just because you are a character doesn't mean you have character»
Русское название: Криминальное чтиво
Оригинальное название: Pulp Fiction
Год выпуска: 1994
Жанр: триллер, комедия, криминал
Выпущено: США
Режиссер: Квентин Тарантино
В ролях: Джон Траволта , Сэмюэл Л. Джексон , Брюс Уиллис , Ума Турман , Винг Реймз , Тим Рот , Харви Кейтель , Квентин Тарантино , Питер Грин , Аманда Пламмер , Эрик Столц , Мария де Медейруш
Перевод: Дублированный, Профессиональный многоголосый, Авторский (одноголосый)

Сюжет фильма:
Двое бандитов Винсент Вега и Джулс Винфилд проводят время в философских беседах в перерыве между разборками и «решением проблем» с должниками своего криминального босса Марселласа Уоллеса. Параллельно разворачивается три истории.
В первой из них Винсент присматривает за женой Марселласа Мией и спасает ее от передозировки наркотиков. Во второй рассказывается о Бутче Кулидже, боксере, нанятом Уоллесом, чтобы сдать бой, но обманувшим его. Третья история объединяет первые две - в кафе парочка молодых неудачливых грабителей - Пампкин и Хани Бани делают попытку ограбления, но Джулс останавливает их.

R - Лицам до 17 лет обязательно присутствие взрослого
Качество: BDRip 1080p
Формат: AVC (библиотека кодирования x.264)
Контейнер (Расширение): MKV
Видео: 1920x816 (2.35:1), 8180 Кбит/сек, 23,976 кадр/сек, 0,218 Бит/[Пиксели*Кадры]
Аудио №1: русский / AC3 / 5.1 / 48 kHz / 384 kbps / |Профессиональный (полное дублирование) Miramax|
Аудио №2: русский / AC3 / 5.1 / 48 kHz / 640 kbps / |Профессиональный (многоголосый, закадровый) West Video|
Аудио №3: русский / AC3 / 5.1 / 48 kHz / 640 kbps / |Авторский одноголосый Д. Пучков|
Аудио №4: русский / AC3 / 5.1 / 48 kHz / 640 kbps / |Авторский одноголосый А. Гаврилов|
Аудио №5: русский / AC3 / 5.1 / 48 kHz / 640 kbps / |Авторский одноголосый А. Визгунов|
Аудио №6: русский / AC3 / 5.1 / 44 kHz / 640 kbps / |Профессиональный (многоголосый, закадровый) ТВ-Центр|
Аудио №7: русский / AC3 / 2.0 / 48 kHz / 256 kbps / |Профессиональный (многоголосый, закадровый) НТВ|
Аудио №8: русский / AC3 / 2.0 / 48 kHz / 192 kbps / |Профессиональный (многоголосый, закадровый) ОРТ|
Аудио №9: русский / AC3 / 2.0 / 48 kHz / 192 kbps / |Профессиональный (многоголосый, закадровый) Премьер Видео Фильм|
Аудио №10: русский / AC3 / 5.1 / 48 kHz / 384 kbps / |Авторский одноголосый Ю. Живов|
Аудио №11: русский / AC3 / 2.0 / 48 kHz / 192 kbps / |Авторский одноголосый В. Горчаков|
Аудио №12: русский / AC3 / 2.0 / 48 kHz / 448 kbps / |Авторский одноголосый А. Кашкин|
Аудио №13: украинский / AC3 / 2.0 / 48 kHz / 192 kbps / |Профессиональный (многоголосый, закадровый) [UATeam]|
Аудио №14: украинский / AC3 / 2.0 / 48 kHz / 192 kbps / |Профессиональный (многоголосый, закадровый) [ICTV]|
Аудио №15: английский / AC3 / 5.1 / 48 kHz / 640 kbps /
Субтитры: русские (5 видов), украинские (2 вида), английские (Full)
Продолжительность: 02:34:27

MediaInfo

Format                                   : Matroska
Format version                           : Version 2
File size                                : 15.9 GiB
Duration                                 : 2h 34mn
Overall bit rate                         : 14.7 Mbps
Movie name                               : Kriminal'noe chtivo.(1994).BDRip.1080p.[denis100]
Encoded date                             : UTC 2015-02-08 08:56:03
Writing application                      : mkvmerge v5.8.0 ('No Sleep / Pillow') built on Sep  2 2012 15:37:04
Writing library                          : libebml v1.2.3 + libmatroska v1.3.0
Video
ID                                       : 1
Format                                   : AVC
Format/Info                              : Advanced Video Codec
Format profile                           : High@L4.1
Format settings, CABAC                   : Yes
Format settings, ReFrames                : 5 frames
Codec ID                                 : V_MPEG4/ISO/AVC
Duration                                 : 2h 34mn
Bit rate                                 : 8 181 Kbps
Width                                    : 1 920 pixels
Height                                   : 816 pixels
Display aspect ratio                     : 2.35:1
Frame rate                               : 23.976 fps
Color space                              : YUV
Chroma subsampling                       : 4:2:0
Bit depth                                : 8 bits
Scan type                                : Progressive
Bits/(Pixel*Frame)                       : 0.218
Stream size                              : 8.83 GiB (55%)
Title                                    : Kriminal'noe chtivo.(1994).BDRip.1080p.[denis100]
Writing library                          : x264 core 144 r2525 40bb568
Encoding settings                        : cabac=1 / ref=5 / deblock=1:-3:-3 / analyse=0x3:0x133 / me=umh / subme=11 / psy=1 / psy_rd=1.00:0.10 / mixed_ref=1 / me_range=32 / chroma_me=1 / trellis=2 / 8x8dct=1 / cqm=0 / deadzone=21,11 / fast_pskip=0 / chroma_qp_offset=-3 / threads=6 / lookahead_threads=1 / sliced_threads=0 / nr=0 / decimate=1 / interlaced=0 / bluray_compat=0 / constrained_intra=0 / bframes=9 / b_pyramid=2 / b_adapt=2 / b_bias=0 / direct=3 / weightb=1 / open_gop=0 / weightp=2 / keyint=240 / keyint_min=23 / scenecut=40 / intra_refresh=0 / rc=crf / mbtree=0 / crf=17.5 / qcomp=0.60 / qpmin=0 / qpmax=69 / qpstep=4 / ip_ratio=1.40 / pb_ratio=1.30 / aq=1:0.90
Language                                 : English
Default                                  : Yes
Forced                                   : No
Audio #1
ID                                       : 2
Format                                   : AC-3
Format/Info                              : Audio Coding 3
Mode extension                           : CM (complete main)
Codec ID                                 : A_AC3
Duration                                 : 2h 34mn
Bit rate mode                            : Constant
Bit rate                                 : 384 Kbps
Channel(s)                               : 6 channels
Channel positions                        : Front: L C R, Side: L R, LFE
Sampling rate                            : 48.0 KHz
Bit depth                                : 16 bits
Compression mode                         : Lossy
Stream size                              : 424 MiB (3%)
Title                                    : Профессиональный (полное дублирование) Miramax
Language                                 : Russian
Default                                  : Yes
Forced                                   : No
Audio #2
ID                                       : 3
Format                                   : AC-3
Format/Info                              : Audio Coding 3
Mode extension                           : CM (complete main)
Codec ID                                 : A_AC3
Duration                                 : 2h 34mn
Bit rate mode                            : Constant
Bit rate                                 : 640 Kbps
Channel(s)                               : 6 channels
Channel positions                        : Front: L C R, Side: L R, LFE
Sampling rate                            : 48.0 KHz
Bit depth                                : 16 bits
Compression mode                         : Lossy
Stream size                              : 707 MiB (4%)
Title                                    : Профессиональный (многоголосый, закадровый) West Video
Language                                 : Russian
Default                                  : No
Forced                                   : No
Audio #3
ID                                       : 4
Format                                   : AC-3
Format/Info                              : Audio Coding 3
Mode extension                           : CM (complete main)
Codec ID                                 : A_AC3
Duration                                 : 2h 34mn
Bit rate mode                            : Constant
Bit rate                                 : 640 Kbps
Channel(s)                               : 6 channels
Channel positions                        : Front: L C R, Side: L R, LFE
Sampling rate                            : 48.0 KHz
Bit depth                                : 16 bits
Compression mode                         : Lossy
Stream size                              : 707 MiB (4%)
Title                                    : Авторский одноголосый Д. Пучков
Language                                 : Russian
Default                                  : No
Forced                                   : No
Audio #4
ID                                       : 5
Format                                   : AC-3
Format/Info                              : Audio Coding 3
Mode extension                           : CM (complete main)
Codec ID                                 : A_AC3
Duration                                 : 2h 34mn
Bit rate mode                            : Constant
Bit rate                                 : 640 Kbps
Channel(s)                               : 6 channels
Channel positions                        : Front: L C R, Side: L R, LFE
Sampling rate                            : 48.0 KHz
Bit depth                                : 16 bits
Compression mode                         : Lossy
Stream size                              : 707 MiB (4%)
Title                                    : Авторский одноголосый А. Гаврилов
Language                                 : Russian
Default                                  : No
Forced                                   : No
Audio #5
ID                                       : 6
Format                                   : AC-3
Format/Info                              : Audio Coding 3
Mode extension                           : CM (complete main)
Codec ID                                 : A_AC3
Duration                                 : 2h 34mn
Bit rate mode                            : Constant
Bit rate                                 : 640 Kbps
Channel(s)                               : 6 channels
Channel positions                        : Front: L C R, Side: L R, LFE
Sampling rate                            : 48.0 KHz
Bit depth                                : 16 bits
Compression mode                         : Lossy
Stream size                              : 707 MiB (4%)
Title                                    : Авторский одноголосый А. Визгунов
Language                                 : Russian
Default                                  : No
Forced                                   : No
Audio #6
ID                                       : 7
Format                                   : AC-3
Format/Info                              : Audio Coding 3
Mode extension                           : CM (complete main)
Codec ID                                 : A_AC3
Duration                                 : 2h 34mn
Bit rate mode                            : Constant
Bit rate                                 : 640 Kbps
Channel(s)                               : 6 channels
Channel positions                        : Front: L C R, Side: L R, LFE
Sampling rate                            : 44.1 KHz
Bit depth                                : 16 bits
Compression mode                         : Lossy
Stream size                              : 707 MiB (4%)
Title                                    : Профессиональный (многоголосый, закадровый) ТВ-Центр
Language                                 : Russian
Default                                  : No
Forced                                   : No
Audio #7
ID                                       : 8
Format                                   : AC-3
Format/Info                              : Audio Coding 3
Mode extension                           : CM (complete main)
Codec ID                                 : A_AC3
Duration                                 : 2h 34mn
Bit rate mode                            : Constant
Bit rate                                 : 256 Kbps
Channel(s)                               : 2 channels
Channel positions                        : Front: L R
Sampling rate                            : 48.0 KHz
Bit depth                                : 16 bits
Compression mode                         : Lossy
Stream size                              : 283 MiB (2%)
Title                                    : Профессиональный (многоголосый, закадровый) НТВ
Language                                 : Russian
Default                                  : No
Forced                                   : No
Audio #8
ID                                       : 9
Format                                   : AC-3
Format/Info                              : Audio Coding 3
Mode extension                           : CM (complete main)
Codec ID                                 : A_AC3
Duration                                 : 2h 34mn
Bit rate mode                            : Constant
Bit rate                                 : 192 Kbps
Channel(s)                               : 2 channels
Channel positions                        : Front: L R
Sampling rate                            : 48.0 KHz
Bit depth                                : 16 bits
Compression mode                         : Lossy
Stream size                              : 212 MiB (1%)
Title                                    : Профессиональный (многоголосый, закадровый) ОРТ
Language                                 : Russian
Default                                  : No
Forced                                   : No
Audio #9
ID                                       : 10
Format                                   : AC-3
Format/Info                              : Audio Coding 3
Mode extension                           : CM (complete main)
Codec ID                                 : A_AC3
Duration                                 : 2h 34mn
Bit rate mode                            : Constant
Bit rate                                 : 192 Kbps
Channel(s)                               : 2 channels
Channel positions                        : Front: L R
Sampling rate                            : 48.0 KHz
Bit depth                                : 16 bits
Compression mode                         : Lossy
Stream size                              : 212 MiB (1%)
Title                                    : Профессиональный (многоголосый, закадровый) Премьер Видео Фильм
Language                                 : Russian
Default                                  : No
Forced                                   : No
Audio #10
ID                                       : 11
Format                                   : AC-3
Format/Info                              : Audio Coding 3
Mode extension                           : CM (complete main)
Codec ID                                 : A_AC3
Duration                                 : 2h 34mn
Bit rate mode                            : Constant
Bit rate                                 : 384 Kbps
Channel(s)                               : 6 channels
Channel positions                        : Front: L C R, Side: L R, LFE
Sampling rate                            : 48.0 KHz
Bit depth                                : 16 bits
Compression mode                         : Lossy
Stream size                              : 424 MiB (3%)
Title                                    : Авторский одноголосый Ю. Живов
Language                                 : Russian
Default                                  : No
Forced                                   : No
Audio #11
ID                                       : 12
Format                                   : AC-3
Format/Info                              : Audio Coding 3
Mode extension                           : CM (complete main)
Codec ID                                 : A_AC3
Duration                                 : 2h 34mn
Bit rate mode                            : Constant
Bit rate                                 : 192 Kbps
Channel(s)                               : 2 channels
Channel positions                        : Front: L R
Sampling rate                            : 48.0 KHz
Bit depth                                : 16 bits
Compression mode                         : Lossy
Stream size                              : 212 MiB (1%)
Title                                    : Авторский одноголосый В. Горчаков
Language                                 : Russian
Default                                  : No
Forced                                   : No
Audio #12
ID                                       : 13
Format                                   : AC-3
Format/Info                              : Audio Coding 3
Mode extension                           : CM (complete main)
Codec ID                                 : A_AC3
Duration                                 : 2h 34mn
Bit rate mode                            : Constant
Bit rate                                 : 448 Kbps
Channel(s)                               : 2 channels
Channel positions                        : Front: L R
Sampling rate                            : 48.0 KHz
Bit depth                                : 16 bits
Compression mode                         : Lossy
Stream size                              : 495 MiB (3%)
Title                                    : Авторский одноголосый А. Кашкин
Language                                 : Russian
Default                                  : No
Forced                                   : No
Audio #13
ID                                       : 14
Format                                   : AC-3
Format/Info                              : Audio Coding 3
Mode extension                           : CM (complete main)
Codec ID                                 : A_AC3
Duration                                 : 2h 34mn
Bit rate mode                            : Constant
Bit rate                                 : 192 Kbps
Channel(s)                               : 2 channels
Channel positions                        : Front: L R
Sampling rate                            : 48.0 KHz
Bit depth                                : 16 bits
Compression mode                         : Lossy
Stream size                              : 212 MiB (1%)
Title                                    : Профессиональный (многоголосый, закадровый) [UATeam].
Language                                 : Ukrainian
Default                                  : No
Forced                                   : No
Audio #14
ID                                       : 15
Format                                   : AC-3
Format/Info                              : Audio Coding 3
Mode extension                           : CM (complete main)
Codec ID                                 : A_AC3
Duration                                 : 2h 34mn
Bit rate mode                            : Constant
Bit rate                                 : 192 Kbps
Channel(s)                               : 2 channels
Channel positions                        : Front: L R
Sampling rate                            : 48.0 KHz
Bit depth                                : 16 bits
Compression mode                         : Lossy
Stream size                              : 212 MiB (1%)
Title                                    : Профессиональный (многоголосый, закадровый) [ICTV].
Language                                 : Ukrainian
Default                                  : No
Forced                                   : No
Audio #15
ID                                       : 16
Format                                   : AC-3
Format/Info                              : Audio Coding 3
Mode extension                           : CM (complete main)
Codec ID                                 : A_AC3
Duration                                 : 2h 34mn
Bit rate mode                            : Constant
Bit rate                                 : 640 Kbps
Channel(s)                               : 6 channels
Channel positions                        : Front: L C R, Side: L R, LFE
Sampling rate                            : 48.0 KHz
Bit depth                                : 16 bits
Compression mode                         : Lossy
Stream size                              : 707 MiB (4%)
Title                                    : English
Language                                 : English
Default                                  : No
Forced                                   : No
Text #1
ID                                       : 17
Format                                   : UTF-8
Codec ID                                 : S_TEXT/UTF8
Codec ID/Info                            : UTF-8 Plain Text
Title                                    : R5
Language                                 : Russian
Default                                  : No
Forced                                   : No
Text #2
ID                                       : 18
Format                                   : UTF-8
Codec ID                                 : S_TEXT/UTF8
Codec ID/Info                            : UTF-8 Plain Text
Title                                    : Пучков
Language                                 : Russian
Default                                  : No
Forced                                   : No
Text #3
ID                                       : 19
Format                                   : UTF-8
Codec ID                                 : S_TEXT/UTF8
Codec ID/Info                            : UTF-8 Plain Text
Language                                 : Russian
Default                                  : No
Forced                                   : No
Text #4
ID                                       : 20
Format                                   : UTF-8
Codec ID                                 : S_TEXT/UTF8
Codec ID/Info                            : UTF-8 Plain Text
Language                                 : Russian
Default                                  : No
Forced                                   : No
Text #5
ID                                       : 21
Format                                   : UTF-8
Codec ID                                 : S_TEXT/UTF8
Codec ID/Info                            : UTF-8 Plain Text
Language                                 : Russian
Default                                  : No
Forced                                   : No
Text #6
ID                                       : 22
Format                                   : UTF-8
Codec ID                                 : S_TEXT/UTF8
Codec ID/Info                            : UTF-8 Plain Text
Title                                    : R5
Language                                 : Ukrainian
Default                                  : No
Forced                                   : No
Text #7
ID                                       : 23
Format                                   : UTF-8
Codec ID                                 : S_TEXT/UTF8
Codec ID/Info                            : UTF-8 Plain Text
Language                                 : Ukrainian
Default                                  : No
Forced                                   : No
Text #8
ID                                       : 24
Format                                   : UTF-8
Codec ID                                 : S_TEXT/UTF8
Codec ID/Info                            : UTF-8 Plain Text
Title                                    : Full
Language                                 : English
Default                                  : No
Forced                                   : No

x264

x264 [info]: frame I:1475  Avg QP:14.99  size:171690
x264 [info]: frame P:42820 Avg QP:16.22  size: 81101
x264 [info]: frame B:177893 Avg QP:18.22  size: 34190

Скриншоты

[Профиль] [ЛС]
Кто просматривает тему:

Форум Тема Автор Размер
Фильмы (DVD 5/9) 12 / Двенадцать (Никита Михалков) [2007, Россия, Триллер, драма, криминал, детектив, военный, BD>DVD5 (Custom)] TorrentFilm 4.33 GB
Фильмы (DVD 5/9) 12 / Двенадцать (Никита Михалков) [2007, Россия, Триллер, драма, криминал, детектив, военный, BD>DVD9 (Custom)] TorrentFilm 7.8 GB
Фильмы 2009 года 12 раундов / 12 Rounds (Ренни Харлин / Renny Harlin) [2009, США, боевик, триллер, криминал, HDTVRip] Dub TorrentFilm 1.37 GB
Фильмы 2011 года 13 квадратных метров / 13m2 (Бартелеми Гроссманн / Barthelemy Grossmann) [2007, Франция, криминальная драма, триллер, DVB -> DVD] Original (Fre) + Sub (Rus, Eng, Fre, Deu) TorrentFilm 1.95 GB
Фильмы 2014 года 13-й район: Кирпичные особняки / Brick Mansions (Камиль Деламарр / Camille Delamarre) [2014, Боевик, криминал, BDRip-AVC] Dub (R5) + Original (Eng) + Sub (Eng) sergej644 2.18 GB
Фильмы 2014 года 13-й район: Кирпичные особняки / Brick Mansions (Камиль Деламарр / Camille Delamarre) [2014, Франция, Боевик, криминал, WEB-DLRip] Dub bot 1.46 GB
Фильмы 2014 года 13-й район: Кирпичные особняки / Brick Mansions (Камиль Деламарр / Camille Delamarre) [2014, Франция, Канада, боевик, драма, криминал,WEBRip] Dub bot 703 MB
Фильмы 2014 года 13-й район: Кирпичные особняки / Brick Mansions (Камиль Деламарр / Camille Delamarre) [2014, Франция, Канада, боевик, криминал, BDRip, 720p] Dub (Студия "CineLab SoundMix") sergej644 4.85 GB
Показать сообщения:    

Текущее время: Сегодня 20:05

Часовой пояс: GMT



Вы не можете начинать темы
Вы не можете отвечать на сообщения
Вы не можете редактировать свои сообщения
Вы не можете удалять свои сообщения
Вы не можете голосовать в опросах
Вы не можете прикреплять файлы к сообщениям
Вы не можете скачивать файлы