Криминальная история / Crime Story / Zhong an zu (1993) BDRip 1080p

 
Автор Сообщение

sergej644 ®

Пол:

Стаж: 4 года 11 месяцев

Сообщений: 6042

Откуда: Soviet Union



Награды: Нет

Торрент-статистика

Создавать темы 31-Окт-2014 19:18

[Цитировать]

--Криминальная история / Crime Story / Zhong an zu (1993) Информация о фильме
Название: Криминальная история
Оригинальное название: Zhong an zu
Год выхода: 1993
Страна: Гонконг
Выпущено: Golden Harvest Company
Жанр: Боевик, драма, криминал
Продолжительность: 01:46:51
Перевод 1: Авторский (Одноголосый закадровый "Ю. Живов")
Перевод 2: Профессиональный (Дублированный "English")
Режиссер: Кирк Вонг, Джеки Чан
В ролях: Джеки Чан, Кент Чэн, Кристин ЭнДжи, Ло Ханг Кенг, Ау Енг Пуи Шан, , Фэт Ван, Кен Ло, Фэт Чунг-О фильме: Криминальный триллер, основанный на реальных событиях, о похищении людей и коррупции в полиции Гонкога. Джеки Чан играет спецагента, заданием которого является защита известного магната. Но бизнесмена все-таки похищают…
-Файл
Кодек: x264
Формат: MKV
Качество: BDRip 1080p (BDRemux от Gellard)
Видео: AVC (High@L4.1) 1920x1024 (1.85:1), 23.976 fps, 9756 kbps, 0,207 Bits/Pixel
Аудио 1: DD (AC-3) 2.0 ch, 192 kbps (Rus)
Аудио 2: DD (AC-3) 5.1 ch, 448 kbps (Eng)
Субтитры: Русские, Английские
Размер: (1/3 BD)--

MI

General
Unique ID : 216017021683132505902678815298530990408 (0xA2835D744A263521962BBDA611025948)
Format : Matroska
Format version : Version 2
File size : 7.76 GiB
Duration : 1h 46mn
Overall bit rate : 10.4 Mbps
Movie name : Криминальная история (1993) BDRip (1080p)
Encoded date : UTC 2013-01-15 11:43:43
Writing application : mkvmerge v5.8.0 ('No Sleep / Pillow') built on Sep 2 2012 15:37:04
Writing library : libebml v1.2.3 + libmatroska v1.3.0
Video
ID : 1
Format : AVC
Format/Info : Advanced Video Codec
Format profile : High@L4.1
Format settings, CABAC : Yes
Format settings, ReFrames : 4 frames
Codec ID : V_MPEG4/ISO/AVC
Duration : 1h 46mn
Bit rate : 9 756 Kbps
Width : 1 920 pixels
Height : 1 024 pixels
Display aspect ratio : 1.85:1
Frame rate mode : Constant
Frame rate : 23.976 fps
Color space : YUV
Chroma subsampling : 4:2:0
Bit depth : 8 bits
Scan type : Progressive
Bits/(Pixel*Frame) : 0.207
Stream size : 7.13 GiB (92%)
Title : Release by Alex260680
Writing library : x264 core 129 r2230 1cffe9f
Encoding settings : cabac=1 / ref=4 / deblock=1:-3:-3 / analyse=0x3:0x113 / me=umh / subme=10 / psy=1 / psy_rd=1.00:0.10 / mixed_ref=1 / me_range=32 / chroma_me=1 / trellis=2 / 8x8dct=1 / cqm=0 / deadzone=21,11 / fast_pskip=0 / chroma_qp_offset=-3 / threads=12 / lookahead_threads=2 / sliced_threads=0 / nr=0 / decimate=0 / interlaced=0 / bluray_compat=0 / constrained_intra=0 / bframes=5 / b_pyramid=2 / b_adapt=2 / b_bias=0 / direct=3 / weightb=1 / open_gop=0 / weightp=2 / keyint=240 / keyint_min=23 / scenecut=40 / intra_refresh=0 / rc=2pass / mbtree=0 / bitrate=9756 / ratetol=1.0 / qcomp=0.60 / qpmin=0 / qpmax=69 / qpstep=4 / cplxblur=20.0 / qblur=0.5 / ip_ratio=1.40 / pb_ratio=1.30 / aq=1:0.70
Language : Chinese
Default : Yes
Forced : No
Audio #1
ID : 2
Format : AC-3
Format/Info : Audio Coding 3
Mode extension : CM (complete main)
Format settings, Endianness : Big
Codec ID : A_AC3
Duration : 1h 46mn
Bit rate mode : Constant
Bit rate : 192 Kbps
Channel(s) : 2 channels
Channel positions : Front: L R
Sampling rate : 48.0 KHz
Bit depth : 16 bits
Compression mode : Lossy
Stream size : 147 MiB (2%)
Title : AVO (Ю. Живов)
Language : Russian
Default : Yes
Forced : No
Audio #2
ID : 3
Format : AC-3
Format/Info : Audio Coding 3
Mode extension : CM (complete main)
Format settings, Endianness : Big
Codec ID : A_AC3
Duration : 1h 46mn
Bit rate mode : Constant
Bit rate : 448 Kbps
Channel(s) : 6 channels
Channel positions : Front: L C R, Side: L R, LFE
Sampling rate : 48.0 KHz
Bit depth : 16 bits
Compression mode : Lossy
Stream size : 342 MiB (4%)
Title : DUB
Language : English
Default : No
Forced : No
Text #1
ID : 4
Format : UTF-8
Codec ID : S_TEXT/UTF8
Codec ID/Info : UTF-8 Plain Text
Language : Russian
Default : No
Forced : No
Text #2
ID : 5
Format : UTF-8
Codec ID : S_TEXT/UTF8
Codec ID/Info : UTF-8 Plain Text
Language : English
Default : No
Forced : No
Menu
00:00:00.000 : en:Chapter1
00:02:40.242 : en:Chapter2
00:06:56.665 : en:Chapter3
00:11:43.870 : en:Chapter4
00:16:08.551 : en:Chapter5
00:20:41.531 : en:Chapter6
00:24:55.035 : en:Chapter7
00:31:44.277 : en:Chapter8
00:40:32.679 : en:Chapter9
00:46:34.666 : en:Chapter10
00:55:19.733 : en:Chapter11
00:59:03.081 : en:Chapter12
01:02:32.331 : en:Chapter13
01:07:21.204 : en:Chapter14
01:12:53.618 : en:Chapter15
01:18:43.927 : en:Chapter16
01:24:21.806 : en:Chapter17
01:31:40.203 : en:Chapter18
01:37:25.047 : en:Chapter19
01:40:29.356 : en:Chapter20

x264

x264 [info]: frame I:1093 Avg QP:17.90 size:156380
x264 [info]: frame P:38299 Avg QP:20.47 size: 88692
x264 [info]: frame B:114329 Avg QP:22.54 size: 37164

Исходник

Ремукс был собран из китайского Blu-Ray-диска от Kam & Ronson, который был издан в марте 2011 года. За синхронизацию авторского перевода Юрия Живова большое спасибо Diablo, за предоставление перевода спасибо Jackie Chan. За русские субтитры спасибо se-nat, правка русских субтитров была осуществлена Gellard.
-Скриншоты
-
[Профиль] [ЛС]
Кто просматривает тему:

Форум Тема Автор Размер
Фильмы (DVD 5/9) 12 / Двенадцать (Никита Михалков) [2007, Россия, Триллер, драма, криминал, детектив, военный, BD>DVD5 (Custom)] TorrentFilm 4.33 GB
Фильмы (DVD 5/9) 12 / Двенадцать (Никита Михалков) [2007, Россия, Триллер, драма, криминал, детектив, военный, BD>DVD9 (Custom)] TorrentFilm 7.8 GB
Фильмы 2009 года 12 раундов / 12 Rounds (Ренни Харлин / Renny Harlin) [2009, США, боевик, триллер, криминал, HDTVRip] Dub TorrentFilm 1.37 GB
Фильмы 2011 года 13 квадратных метров / 13m2 (Бартелеми Гроссманн / Barthelemy Grossmann) [2007, Франция, криминальная драма, триллер, DVB -> DVD] Original (Fre) + Sub (Rus, Eng, Fre, Deu) TorrentFilm 1.95 GB
Фильмы 2014 года 13-й район: Кирпичные особняки / Brick Mansions (Камиль Деламарр / Camille Delamarre) [2014, Боевик, криминал, BDRip-AVC] Dub (R5) + Original (Eng) + Sub (Eng) sergej644 2.18 GB
Фильмы 2014 года 13-й район: Кирпичные особняки / Brick Mansions (Камиль Деламарр / Camille Delamarre) [2014, Франция, Боевик, криминал, WEB-DLRip] Dub bot 1.46 GB
Фильмы 2014 года 13-й район: Кирпичные особняки / Brick Mansions (Камиль Деламарр / Camille Delamarre) [2014, Франция, Канада, боевик, драма, криминал,WEBRip] Dub bot 703 MB
Фильмы 2014 года 13-й район: Кирпичные особняки / Brick Mansions (Камиль Деламарр / Camille Delamarre) [2014, Франция, Канада, боевик, криминал, BDRip, 720p] Dub (Студия "CineLab SoundMix") sergej644 4.85 GB
Показать сообщения:    

Текущее время: Сегодня 16:23

Часовой пояс: GMT



Вы не можете начинать темы
Вы не можете отвечать на сообщения
Вы не можете редактировать свои сообщения
Вы не можете удалять свои сообщения
Вы не можете голосовать в опросах
Вы не можете прикреплять файлы к сообщениям
Вы не можете скачивать файлы