Крик совы [01-10 из 10] (2013) HDTVRip-AVC

 
Автор Сообщение

sergej644 ®

Пол:

Стаж: 4 года 11 месяцев

Сообщений: 6045

Откуда: Soviet Union



Награды: Нет

Торрент-статистика

Создавать темы 23-Авг-2015 13:27

[Цитировать]

Информация о фильме
Оригинальное название: Крик совы (Особые полномочия)
Год выпуска: 2013
Жанр: Детектив
Режиссер: Олег Погодин
В ролях: Сергей Пускепалис, Андрей Мерзликин, Мария Миронова, Евгений Дятлов, Николай Иванов, Андрей Феськов, Анатолий Васильев, Игорь Савочкин, Серафима Низовская, Василий Бочкарёв, Сергей Юшкевич, Наталья Высочанская, Александр Марушев, Евгения Дмитриева, Эрнст Романов, Эра Зиганшина, Евгений Ганелин, Николай Харитонов, Владимир Матвеев, Анна Уколова, Олег Алмазов, Александр Нестеров, Наталья Данилова, Аркадий Волгин, Сергей Барковский, Наталья Ткаченко, Анатолий Горин, Геннадий Алимпиев
О фильме:
1957 год, время хрущевской "оттепели". Городок Остров Псковской области сотрясает череда дерзких преступлений. При стычке бандитов с правоохранительными органами тяжело ранен один из лучших сотрудников местной милиции – капитан Юрий Сиротин. В бессознательном состоянии он разговаривает по-немецки, что приводит к служебному расследованию, которое поручено вести сотруднику областного ГБ Ивану Митину. В Острове ему приходится взаимодействовать с майором милиции Андреем Балахниным – лучшим другом подозреваемого Сиротина. Балахнин и Митин, не слишком симпатизирующие друг другу, влюбляются в одну женщину – работницу почты Нину. Расследование вытаскивает на свет множество мучительных тайн, которыми пронизана жизнь обитателей Острова со времен войны.

Страна: Россия
Продолжительность: 10 х ~ 00:52:00
Язык: Русский
Файл
Кодек: MPEG-4 AVC
Качество: HDTVRip-AVC (HDTV 1080i)
Видео: 1024x576, ~ 1450 кб/c
Звук: АС3, 2 ch, 192 кб/c--

M/I

General
Unique ID : 279735443362152362063374871198629343818 (0xD27316312B49F8664535F31BDEAFB24A)
Complete name : F:СериалыКрик совы [01-10 из 10] (2013) HDTVRip-AVCKrik.Sovy.01.HDTVRIP_AVC.[-=DoMiNo=-].mkv
Format : Matroska
Format version : Version 4 / Version 2
File size : 635 MiB
Duration : 51mn 18s
Overall bit rate : 1 730 Kbps
Writing application : XviD4PSP 7.0.168
Writing library : Lavf56.25.101
ENCODING_INFO : MPEGTS > MKV / H264 > X264 CRF 19.0 Custom / MP2 > AC3 CBR 192kbps
Video
ID : 1
Format : AVC
Format/Info : Advanced Video Codec
Format profile : High@L4.1
Format settings, CABAC : Yes
Format settings, ReFrames : 10 frames
Codec ID : V_MPEG4/ISO/AVC
Duration : 51mn 18s
Bit rate : 1 504 Kbps
Width : 1 024 pixels
Height : 576 pixels
Display aspect ratio : 16:9
Frame rate mode : Constant
Frame rate : 25.000 fps
Color space : YUV
Chroma subsampling : 4:2:0
Bit depth : 8 bits
Scan type : Progressive
Bits/(Pixel*Frame) : 0.102
Stream size : 552 MiB (87%)
Writing library : x264 core 148 r2597M e86f3a1
Encoding settings : cabac=1 / ref=10 / deblock=1:-3:-3 / analyse=0x3:0x133 / me=umh / subme=10 / psy=1 / psy_rd=1.00:0.10 / mixed_ref=1 / me_range=32 / chroma_me=1 / trellis=2 / 8x8dct=1 / cqm=0 / deadzone=21,11 / fast_pskip=0 / chroma_qp_offset=-3 / threads=6 / lookahead_threads=1 / sliced_threads=0 / nr=0 / decimate=1 / interlaced=0 / bluray_compat=0 / constrained_intra=0 / bframes=9 / b_pyramid=2 / b_adapt=2 / b_bias=0 / direct=1 / weightb=1 / open_gop=0 / weightp=2 / keyint=250 / keyint_min=25 / scenecut=40 / intra_refresh=0 / rc=crf / mbtree=0 / crf=19.0 / qcomp=0.60 / qpmin=19 / qpmax=69 / qpstep=4 / ip_ratio=1.40 / pb_ratio=1.30 / aq=1:1.00
Default : Yes
Forced : No
Color range : Limited
Color primaries : BT.709
Transfer characteristics : BT.709
Matrix coefficients : BT.709
Audio
ID : 2
Format : AC-3
Format/Info : Audio Coding 3
Mode extension : CM (complete main)
Format settings, Endianness : Big
Codec ID : A_AC3
Duration : 51mn 18s
Bit rate mode : Constant
Bit rate : 192 Kbps
Channel(s) : 2 channels
Channel positions : Front: L R
Sampling rate : 48.0 KHz
Bit depth : 16 bits
Compression mode : Lossy
Delay relative to video : 27ms
Stream size : 70.5 MiB (11%)
Language : Russian
Default : Yes
Forced : No
----
[Профиль] [ЛС]
Кто просматривает тему:

Показать сообщения:    

Текущее время: Сегодня 16:26

Часовой пояс: GMT



Вы не можете начинать темы
Вы не можете отвечать на сообщения
Вы не можете редактировать свои сообщения
Вы не можете удалять свои сообщения
Вы не можете голосовать в опросах
Вы не можете прикреплять файлы к сообщениям
Вы не можете скачивать файлы