Крик дельфина (Алексей Салтыков) [1986, боевик, научная фантастика, DVB]

 
Автор Сообщение

reversefile ®

Пол:

Стаж: 4 года 5 месяцев

Сообщений: 842

Откуда: ReverseFile.org



Награды: Нет

Торрент-статистика

Создавать темы 11-Авг-2014 06:19

[Цитировать]

Крик дельфина
12.07.14 торрент обновлен, файл заменен на видео лучшего качества (битрейт видео 4840 против 1732), любезно предоставленное коллегой ItarTass
Жанр: боевик, научная фантастика
Год выпуска: 1986
Продолжительность: 01:29:23
Режиссёр: Алексей Салтыков
В ролях: Ивар Калныньш, Донатас Банионис, Армен Джигарханян, Юрий Васильев, Паул Буткевич, Татьяна Паркина, К. Митаишвили, Надежда Бутырцева, Ростислав Янковский, Вилнис Бекерис, Владимир Шубарин, И. Погодина, Ромуалдс Анцанс, Владимир Епископосян, Андрей Подошьян, Сергей Рошинец
Описание: Корабль, принадлежащий военно-морским силам одной из западных стран, отправляется в длительное боевое патрулирование. На его борту - баллистические ракеты, часть из которых с биоматериалами. В результате разгерметизации одной из них на атомоходе начала распространяться странная и неизвестная болезнь (контакт экипажа с землей исключен). Вскоре экипаж становится неуправляемым...
Доп. информация: Запись потока *.ts со спутника Ямал 202, 49° в.д., ремукс в *.mpg программой VideoReDo.
За постер спасибо fed923
Качество видео: DVB
Формат видео: MPEG-PS
Видео: MPEG Video, 704(768)х576, 4:3, 25,000 кадр/сек, 4840 Кбит/сек
Аудио: MPEG Audio, 48,0 КГц, 192 Кбит/сек, 2 канала

MediaInfo

Общее
Полное имя : D:\Torrent\КРИК ДЕЛЬФИНА (ZVEZDA).mpg
Формат : MPEG-PS
Размер файла : 3,18 Гбайт
Продолжительность : 1 ч. 29 м.
Режим общего битрейта : Переменный
Общий поток : 5094 Кбит/сек
Видео
Идентификатор : 224 (0xE0)
Формат : MPEG Video
Версия формата : Version 2
Профиль формата : Main@Main
Параметр BVOP формата : Да
Параметр матрицы формата : Выборочная
Параметр GOP формата : M=3, N=24
Продолжительность : 1 ч. 29 м.
Вид битрейта : Переменный
Битрейт : 4840 Кбит/сек
Ширина : 704 пикселя
Высота : 576 пикселей
Соотношение сторон : 4:3
Частота кадров : 25,000 кадров/сек
Стандарт вещания : PAL
Цветовое пространство : YUV
Субдискретизация насыщенности : 4:2:0
Битовая глубина : 8 бит
Тип развёртки : Чересстрочная
Порядок развёртки : Верхнее поле первое
Метод сжатия : С потерями
Бит/(Пиксели*Кадры) : 0.477
Временной код первого кадра : 00:00:00:00
Оригинал временного кода : Group of pictures header
Размер потока : 3,00 Гбайт (94%)
Аудио
Идентификатор : 192 (0xC0)
Формат : MPEG Audio
Версия формата : Version 1
Профиль формата : Layer 2
Продолжительность : 1 ч. 29 м.
Вид битрейта : Постоянный
Битрейт : 192 Кбит/сек
Каналы : 2 канала
Частота : 48,0 КГц
Метод сжатия : С потерями
Задержка видео : 4 мс.
Размер потока : 123 Мбайт (4%)
--
[Профиль] [ЛС]

Создавать темы 06-Авг-2015 22:04 (спустя 11 месяцев 26 дней)

Топик был перенесен из форума Кино СССР в форум Кино СССР
sergej644
 
Кто просматривает тему:

Показать сообщения:    

Текущее время: Сегодня 00:04

Часовой пояс: GMT



Вы не можете начинать темы
Вы не можете отвечать на сообщения
Вы не можете редактировать свои сообщения
Вы не можете удалять свои сообщения
Вы не можете голосовать в опросах
Вы не можете прикреплять файлы к сообщениям
Вы не можете скачивать файлы