Кризисный момент / Crisis Point (2012) HDTVRip 720p от MediaClub | P

 
Автор Сообщение

sergej644 ®

Пол:

Стаж: 4 года 11 месяцев

Сообщений: 6045

Откуда: Soviet Union



Награды: Нет

Торрент-статистика

Создавать темы 10-Фев-2015 09:56

[Цитировать]

Информация о фильме
Название: Кризисный момент
Оригинальное название: Crisis Point
Год выхода: 2012
Жанр: Триллер, драма, детектив
Режиссер: Адриан Уиллс
В ролях: Рона Митра, Эрика Розенбаум, Марк Менар, Ричард Жютра, Илайс Туфексис, Дэнис Фергюсон, Джордан Хэйес, Ник Уолкер, Мэттью Кабуи, Зак Пеладо
О фильме:
Криминальный психолог Камерон Грайнгер из Детройта является переговорщиком при захватах заложников. Обвиняя себя в неумелом ведении переговоров во время кризисной ситуации, в результате чего молодой человек был убит, она увольняется со службы…

Страна: Канада
Студия: Incendo Media
Продолжительность: 01:26:24
Перевод: Профессиональный многоголосый (SDI Media)
Файл
Кодек: MPEG-4 AVC
Качество: HDTVRip 720p
Видео: 3550 Кбит/с, 1280x720, 25.000 кадр/с
Звук: Русский (АС3, 2 ch, 192 Кбит/с)
Семпл

Скриншоты

MI

Общее
Полное имя : Krizisnyj.moment.2012.x264.HDTVRip(720p).MediaClub.mkv
Формат : Matroska
Версия формата : Version 2
Размер файла : 2,26 Гбайт
Продолжительность : 1 ч. 26 м.
Общий поток : 3742 Кбит/сек
Название фильма : MediaClub
Дата кодирования : UTC 2014-10-03 11:39:51
Программа кодирования : mkvmerge v5.4.0 ('Piper') built on Mar 10 2012 13:34:39
Библиотека кодирования : libebml v1.2.3 + libmatroska v1.3.0
Видео
Идентификатор : 1
Формат : AVC
Формат/Информация : Advanced Video Codec
Профиль формата : High@L4.1
Параметр CABAC формата : Да
Параметр ReFrames формата : 9 кадров
Идентификатор кодека : V_MPEG4/ISO/AVC
Продолжительность : 1 ч. 26 м.
Битрейт : 3550 Кбит/сек
Ширина : 1280 пикселей
Высота : 720 пикселей
Соотношение сторон : 16:9
Режим частоты кадров : Постоянный
Частота кадров : 25,000 кадров/сек
Цветовое пространство : YUV
Субдискретизация насыщенности : 4:2:0
Битовая глубина : 8 бит
Тип развёртки : Прогрессивная
Бит/(Пиксели*Кадры) : 0.154
Размер потока : 2,10 Гбайт (93%)
Библиотека кодирования : x264 core 125 r2208 d9d2288
Настройки программы : cabac=1 / ref=9 / deblock=1:-3:-2 / analyse=0x3:0x133 / me=umh / subme=10 / psy=1 / psy_rd=1.00:0.20 / mixed_ref=1 / me_range=48 / chroma_me=1 / trellis=2 / 8x8dct=1 / cqm=0 / deadzone=21,11 / fast_pskip=0 / chroma_qp_offset=-3 / threads=6 / lookahead_threads=1 / sliced_threads=0 / nr=0 / decimate=0 / interlaced=0 / bluray_compat=0 / constrained_intra=0 / bframes=8 / b_pyramid=2 / b_adapt=2 / b_bias=0 / direct=3 / weightb=1 / open_gop=0 / weightp=2 / keyint=250 / keyint_min=25 / scenecut=40 / intra_refresh=0 / rc=2pass / mbtree=0 / bitrate=3550 / ratetol=1.0 / qcomp=0.60 / qpmin=0 / qpmax=69 / qpstep=4 / cplxblur=20.0 / qblur=0.5 / ip_ratio=1.40 / pb_ratio=1.30 / aq=1:1.00
Default : Да
Forced : Нет
Аудио
Идентификатор : 2
Формат : AC-3
Формат/Информация : Audio Coding 3
Расширение режима : CM (complete main)
Параметр Endianness формата : Big
Идентификатор кодека : A_AC3
Продолжительность : 1 ч. 26 м.
Вид битрейта : Постоянный
Битрейт : 192 Кбит/сек
Каналы : 2 канала
Расположение каналов : Front: L R
Частота : 48,0 КГц
Битовая глубина : 16 бит
Метод сжатия : С потерями
Размер потока : 119 Мбайт (5%)
Язык : Russian
Default : Да
Forced : Нет
[Профиль] [ЛС]
Показать сообщения:    

Текущее время: Сегодня 22:23

Часовой пояс: GMT



Вы не можете начинать темы
Вы не можете отвечать на сообщения
Вы не можете редактировать свои сообщения
Вы не можете удалять свои сообщения
Вы не можете голосовать в опросах
Вы не можете прикреплять файлы к сообщениям
Вы не можете скачивать файлы