Кривая линия / Curve (Иэн Софтли / Iain Softley) [2015, США, ужасы, триллер, WEB-DLRip] DUB

 
Автор Сообщение

TorrentFilm ®

Пол:

Стаж: 1 год 11 месяцев

Сообщений: 7741



Награды: Нет

Торрент-статистика

Создавать темы 11-Ноя-2015 00:12

[Цитировать]

Кривая линия / Curve
-Год выпуска: 2015
Страна: США
Жанр: ужасы, триллер
Продолжительность: 01:25:29
Перевод: Профессиональный (полное дублирование) Лицензия-Режиссер: Иэн Софтли / Iain Softley-В ролях: Джулианна Хаф, Тедди Сирс, Курт Брайант, Мэдалин Хорчер, Дрю Рауш-Описание:
По вине автостопщика, спровоцировавшего аварию, молодая женщина попадает в ловушку своего собственного автомобиля.- -Качество: WEB-DLRip
Формат: AVI
Видео: XviD, 720x304 (2.35:1), 1884 kbps, 23,976 fps, 0,359 bpp
Аудио: AC3 / 2.0 / 48 kHz / 384 kbps / 16 bit-Сэмпл: http://sendfile.su/1172117-

ОтчетМедиаИнфо

General
Complete name : D:\Торенты\Curve.2015.D.WEB-DLRip.1400Mb.avi
Format : AVI
Format/Info : Audio Video Interleave
File size : 1.36 GiB
Duration : 1h 25mn
Overall bit rate : 2 278 Kbps
Writing application : VirtualDubMod 1.5.10.2 (build 2540/release)
Writing library : VirtualDubMod build 2540/release
Video
ID : 0
Format : MPEG-4 Visual
Format profile : Advanced Simple@L5
Format settings, BVOP : 2
Format settings, QPel : No
Format settings, GMC : No warppoints
Format settings, Matrix : Default (MPEG)
Codec ID : XVID
Codec ID/Hint : XviD
Duration : 1h 25mn
Bit rate : 1 885 Kbps
Width : 720 pixels
Height : 304 pixels
Display aspect ratio : 2.35:1
Frame rate : 23.976 fps
Color space : YUV
Chroma subsampling : 4:2:0
Bit depth : 8 bits
Scan type : Progressive
Compression mode : Lossy
Bits/(Pixel*Frame) : 0.359
Stream size : 1.13 GiB (83%)
Writing library : XviD 1.2.1 (UTC 2008-12-04)
Audio
ID : 1
Format : AC-3
Format/Info : Audio Coding 3
Mode extension : CM (complete main)
Codec ID : 2000
Duration : 1h 25mn
Bit rate mode : Constant
Bit rate : 384 Kbps
Channel(s) : 2 channels
Channel positions : Front: L R
Sampling rate : 48.0 KHz
Bit depth : 16 bits
Compression mode : Lossy
Stream size : 235 MiB (17%)
Alignment : Split accross interleaves
Interleave, duration : 42 ms (1.00 video frame)
Interleave, preload duration : 500 ms

Скриншоты

[Профиль] [ЛС]
Показать сообщения:    

Текущее время: Сегодня 05:01

Часовой пояс: GMT



Вы не можете начинать темы
Вы не можете отвечать на сообщения
Вы не можете редактировать свои сообщения
Вы не можете удалять свои сообщения
Вы не можете голосовать в опросах
Вы не можете прикреплять файлы к сообщениям
Вы не можете скачивать файлы