Крещение / Крестины / Chrzest / The Christening (Марцин Врона / Marcin Wrona) [2010, Польша, Драма, криминал, DVDRip] VO + Original (Pol) + Sub (Rus)

 
Автор Сообщение

TorrentFilm ®

Пол:

Стаж: 2 года

Сообщений: 7741



Награды: Нет

Торрент-статистика

Создавать темы 14-Июл-2015 00:10

[Цитировать]

Крещение / Крестины / Chrzest / The Christening- Страна: Польша
Жанр: Драма, криминал
Год выпуска: 2010
Продолжительность: 01:25:26-Перевод: Одноголосый закадровый [Гундос]
Cубтитры: русские [Professor]
Оригинальная аудиодорожка: польский-Режиссер: Марцин Врона / Marcin Wrona-В ролях: Войцех Желинский, Томаш Шухардт, Наталья Рыбицкая, Адам Воронович, Михал Котерский-Описание: Бизнесмен с криминальным прошлым просит ­приятеля стать крестным своего ребенка — и, возможно, полностью занять его место в семье.--Sample | IMDB | КиноПоиск-Тип релиза: DVDRip [исх. DVD5]
Формат видео: AVI-Видео: 704x288 (2.44:1), 25 fps, XviD build 50, 1801 kbps avg, 0.35 bit/pixel
Аудио 1: 48 kHz, AC3 Dolby Digital, 2/0 (L,R) ch, 192.00 kbps avg [Russian_VO]
Аудио 2: 48 kHz, AC3 Dolby Digital, 3/2 (L,C,R,l,r) + LFE ch, 448.00 kbps avg [Original_Pol]-
-

MediaInfo

General
Complete name : D:\Мои релизы\Chrzest_DVDRip_RG_All_Films\Chrzest_DVDRip_RG_All_Films.avi
Format : AVI
Format/Info : Audio Video Interleave
File size : 1.47 GiB
Duration : 1h 25mn
Overall bit rate : 2 457 Kbps
Writing application : VirtualDubMod 1.6.0.0 SURROUND (build 2560/release)
Writing library : VirtualDubMod build 2560/release
Video
ID : 0
Format : MPEG-4 Visual
Format profile : Advanced Simple@L5
Format settings, BVOP : Yes
Format settings, QPel : No
Format settings, GMC : No warppoints
Format settings, Matrix : Custom
Codec ID : XVID
Codec ID/Hint : XviD
Duration : 1h 25mn
Bit rate : 1 803 Kbps
Width : 704 pixels
Height : 288 pixels
Display aspect ratio : 2.40:1
Frame rate : 25.000 fps
Color space : YUV
Chroma subsampling : 4:2:0
Bit depth : 8 bits
Scan type : Progressive
Compression mode : Lossy
Bits/(Pixel*Frame) : 0.356
Stream size : 1.08 GiB (73%)
Writing library : XviD 1.2.1 (UTC 2008-12-04)
Audio #1
ID : 1
Format : AC-3
Format/Info : Audio Coding 3
Mode extension : CM (complete main)
Codec ID : 2000
Duration : 1h 25mn
Bit rate mode : Constant
Bit rate : 192 Kbps
Channel(s) : 2 channels
Channel positions : Front: L R
Sampling rate : 48.0 KHz
Bit depth : 16 bits
Compression mode : Lossy
Stream size : 117 MiB (8%)
Alignment : Split accross interleaves
Interleave, duration : 40 ms (1.00 video frame)
Interleave, preload duration : 500 ms
Audio #2
ID : 2
Format : AC-3
Format/Info : Audio Coding 3
Mode extension : CM (complete main)
Codec ID : 2000
Duration : 1h 25mn
Bit rate mode : Constant
Bit rate : 448 Kbps
Channel(s) : 6 channels
Channel positions : Front: L C R, Side: L R, LFE
Sampling rate : 48.0 KHz
Bit depth : 16 bits
Compression mode : Lossy
Stream size : 274 MiB (18%)
Alignment : Split accross interleaves
Interleave, duration : 40 ms (1.00 video frame)
Interleave, preload duration : 500 ms

Скриншоты

[Профиль] [ЛС]

Создавать темы 06-Авг-2015 22:25 (спустя 23 дня)

Топик был перенесен из форума Фильмы до 2014 года в форум Фильмы до 2012 года
sergej644
 

Создавать темы 12-Июн-2016 07:55 (спустя 10 месяцев 29 дней)

Топик был перенесен из форума Фильмы 2011 года в форум Фильмы 2010 года
Russian Mafia
 
Показать сообщения:    

Текущее время: Сегодня 16:48

Часовой пояс: GMT



Вы не можете начинать темы
Вы не можете отвечать на сообщения
Вы не можете редактировать свои сообщения
Вы не можете удалять свои сообщения
Вы не можете голосовать в опросах
Вы не можете прикреплять файлы к сообщениям
Вы не можете скачивать файлы