Крест (Ирина Прокудина, Аркадий Мамонтов) [2014, Документальный, Россия HD, HDTV 1080i]

 
Автор Сообщение

TorrentFilm ®

Пол:

Стаж: 2 года 6 месяцев

Сообщений: 7773



Награды: Нет

Торрент-статистика

Создавать темы 09-Янв-2015 00:00

[Цитировать]

Крест
Год выпуска: 2014
Страна: Россия
Студия: Студия Аркадия Мамонтова
Жанр: Документальный
Продолжительность: 00:43:02
Перевод: Не требуется
Русские субтитры: нет
Автор сценария: Аркадий Мамонтов
Режиссер: Ирина Прокудина
Описание: Крест является символом и основой христианской веры.
В глубинке России, в Ярославской области, находится монастырь, где хранится одна из святынь православной Руси - так называемый Годеновский Крест.
История этого религиозного артефакта уникальна. В 15 веке, за 30 лет до падения Константинополя, среди болот и лесов необъяснимым образом появился крест византийской работы.
О многострадальной истории христианства, Креста, о том, как из символа позорной казни он превратился в символ веры и спасения, рассказывают известные священники и ученые-историки в фильме Аркадия Мамонтова "Крест".
Сэмпл: скачать
Тип релиза: HDTV 1080i
Контейнер: TS
Видео кодек: H264
Аудио кодек: mp2
Видео: MPEG4 Video (H264) 1920x1080 (16:9) 12.0 Mbps 25fps
Аудио: MPEG Audio 48000Hz stereo 192kbps

MediaInfo

Format : MPEG-TS
File size : 3.85 GiB
Duration : 43mn 2s
Overall bit rate mode : Variable
Overall bit rate : 12.8 Mbps
Video
ID : 256 (0x100)
Menu ID : 1 (0x1)
Format : AVC
Format/Info : Advanced Video Codec
Format profile : Main@L4.0
Format settings, CABAC : Yes
Format settings, ReFrames : 3 frames
Codec ID : 27
Duration : 43mn 2s
Bit rate : 12.0 Mbps
Width : 1 920 pixels
Height : 1 080 pixels
Display aspect ratio : 16:9
Frame rate : 25.000 fps
Standard : Component
Color space : YUV
Chroma subsampling : 4:2:0
Bit depth : 8 bits
Scan type : Interlaced
Bits/(Pixel*Frame) : 0.231
Stream size : 3.60 GiB (94%)
Color primaries : BT.709
Transfer characteristics : BT.709
Matrix coefficients : BT.709
Audio
ID : 257 (0x101)
Menu ID : 1 (0x1)
Format : MPEG Audio
Format version : Version 1
Format profile : Layer 2
Codec ID : 3
Duration : 43mn 2s
Bit rate mode : Constant
Bit rate : 192 Kbps
Channel(s) : 2 channels
Sampling rate : 48.0 KHz
Compression mode : Lossy
Delay relative to video : 7ms
Stream size : 59.1 MiB (1%)
Language : Russian

Скриншоты

[Профиль] [ЛС]
Показать сообщения:    

Текущее время: Сегодня 10:53

Часовой пояс: GMT



Вы не можете начинать темы
Вы не можете отвечать на сообщения
Вы не можете редактировать свои сообщения
Вы не можете удалять свои сообщения
Вы не можете голосовать в опросах
Вы не можете прикреплять файлы к сообщениям
Вы не можете скачивать файлы