Крест (Ирина Прокудина, Аркадий Мамонтов) [2014, Документальный, Россия HD, HDTV 1080i]

 
Автор Сообщение

TorrentFilm ®

Пол:

Стаж: 2 года

Сообщений: 7741



Награды: Нет

Торрент-статистика

Создавать темы 09-Янв-2015 00:00

[Цитировать]

Крест
Год выпуска: 2014
Страна: Россия
Студия: Студия Аркадия Мамонтова
Жанр: Документальный
Продолжительность: 00:43:02
Перевод: Не требуется
Русские субтитры: нет
Автор сценария: Аркадий Мамонтов
Режиссер: Ирина Прокудина
Описание: Крест является символом и основой христианской веры.
В глубинке России, в Ярославской области, находится монастырь, где хранится одна из святынь православной Руси - так называемый Годеновский Крест.
История этого религиозного артефакта уникальна. В 15 веке, за 30 лет до падения Константинополя, среди болот и лесов необъяснимым образом появился крест византийской работы.
О многострадальной истории христианства, Креста, о том, как из символа позорной казни он превратился в символ веры и спасения, рассказывают известные священники и ученые-историки в фильме Аркадия Мамонтова "Крест".
Сэмпл: скачать
Тип релиза: HDTV 1080i
Контейнер: TS
Видео кодек: H264
Аудио кодек: mp2
Видео: MPEG4 Video (H264) 1920x1080 (16:9) 12.0 Mbps 25fps
Аудио: MPEG Audio 48000Hz stereo 192kbps

MediaInfo

Format : MPEG-TS
File size : 3.85 GiB
Duration : 43mn 2s
Overall bit rate mode : Variable
Overall bit rate : 12.8 Mbps
Video
ID : 256 (0x100)
Menu ID : 1 (0x1)
Format : AVC
Format/Info : Advanced Video Codec
Format profile : Main@L4.0
Format settings, CABAC : Yes
Format settings, ReFrames : 3 frames
Codec ID : 27
Duration : 43mn 2s
Bit rate : 12.0 Mbps
Width : 1 920 pixels
Height : 1 080 pixels
Display aspect ratio : 16:9
Frame rate : 25.000 fps
Standard : Component
Color space : YUV
Chroma subsampling : 4:2:0
Bit depth : 8 bits
Scan type : Interlaced
Bits/(Pixel*Frame) : 0.231
Stream size : 3.60 GiB (94%)
Color primaries : BT.709
Transfer characteristics : BT.709
Matrix coefficients : BT.709
Audio
ID : 257 (0x101)
Menu ID : 1 (0x1)
Format : MPEG Audio
Format version : Version 1
Format profile : Layer 2
Codec ID : 3
Duration : 43mn 2s
Bit rate mode : Constant
Bit rate : 192 Kbps
Channel(s) : 2 channels
Sampling rate : 48.0 KHz
Compression mode : Lossy
Delay relative to video : 7ms
Stream size : 59.1 MiB (1%)
Language : Russian

Скриншоты

[Профиль] [ЛС]
Кто просматривает тему:

Форум Тема Автор Размер
Фантастика, фэнтези Андрей Дай | Андреевский крест (2015) [FB2] достали все 1 MB
Фильмы (HD DVD, Blu-ray и BDRemux) Барышня-крестьянка (Алексей Сахаров) [1995, Россия, мелодрама, BDRip 720p] painkiller 6.28 GB
Фильмы (HD Rips | 720p, 1080p) Барышня-крестьянка (Алексей Сахаров) [1995, Россия, мелодрама, Blu-ray disc, 1080p] TorrentFilm 22.97 GB
R.G.TorrentFilm Video Джереми Кларксон: Крест Виктории: За доблесть / Jeremy Clarkson: The Victoria Cross: For Valour (Ричард Пирсон / Richard Pearson) [2003 г., Документальный, военный, DVDRip] VO (FocusStudio) Один 777 500 MB
Фильмы (HD Rips | 720p, 1080p) Железный крест / Cross of Iron (1977) BDRip 720p от HQ-ViDEO | P Russian Mafia 7.91 GB
Фильмы (DVD 5/9) Каменный крест / Камінний хрест (Леонид Осыка / Леонід Осика) [1968, СССР, Кинопритча, драма, экранизация, DVD9] Orig (Uk) + Ru, Sub (Uk, Ru, En) • Реставрация TorrentFilm 5.49 GB
Классика зарубежного кино Крест накрест / Criss Cross (1949) DVDRip от egoleshik | A Russian Mafia 1.37 GB
Фильмы до 2000 года Крестная мать / Bella Mafia (1997) DVDRip-AVC | P, P2, A Russian Mafia 4.97 GB
Показать сообщения:    

Текущее время: Сегодня 20:32

Часовой пояс: GMT



Вы не можете начинать темы
Вы не можете отвечать на сообщения
Вы не можете редактировать свои сообщения
Вы не можете удалять свои сообщения
Вы не можете голосовать в опросах
Вы не можете прикреплять файлы к сообщениям
Вы не можете скачивать файлы