Крестный отец - Трилогия / The Godfather Collection: The Coppola Restoration (1972/1974/1990) BDRip

 
Автор Сообщение

sergej644 ®

Пол:

Стаж: 4 года 11 месяцев

Сообщений: 6045

Откуда: Soviet Union



Награды: Нет

Торрент-статистика

Создавать темы 18-Окт-2014 21:33

[Цитировать]

-Крестный отец - Трилогия / The Godfather Collection: The Coppola Restoration (1972/1974/1990) BDRip-Крестный отец / The Godfather (1972) - Год выпуска: 1972
Жанр: Драма, Криминал
Описание фильма:
Криминальная сага, повествующая о нью-йоркской сицилийской мафиозной семье Корлеоне. Фильм охватывает период 1945-1955 годов.
Глава семьи, Дон Вито Корлеоне, выдаёт замуж свою дочь. В это время со Второй мировой войны возвращается его любимый сын Майкл. Майкл, герой войны, гордость семьи, не выражает желания заняться жестоким семейным бизнесом. Дон Корлеоне ведёт дела по старым правилам, но наступают иные времена, и появляются люди, желающие изменить сложившиеся порядки. На Дона Корлеоне совершается покушение.
Режиссер: Френсис Форд Коппола
Актеры: Марлон Брандо, Аль Пачино, Джеймс Каан, Ричард Кастеллано, Дайэн Китон, Талия Шайр, Роберт Дювалл, Стерлинг Хэйден, Ричард Конте, Джон Марли, Аль Леттьери
Продолжительность: 02:57:09
Качество видео: BDRip
Перевод: Многоголосый закадровый

Дата мировой премьеры: 15 марта 1972
Дата выхода DVD релиза: 24 ноября 2009, «Юниверсал Пикчерс Рус»
Формат: MKV
Видео: 1920x1080 (1:78:1) at 23.976 fps, x264, 2PASS HIGH @ L4.1 (DXVA), ~10.196 Kbps avg
Аудио#1: Russian: 48 kHz, AC3 Dolby Digital, 3/2 (L,C,R,l,r) + LFE ch, ~448.00 kbps avg|Закадровый многоголосый, Киномания|
Аудио#2: Ukrainian: 48 kHz, AC3 Dolby Digital, 2 (L, R) ch, ~192.00 kbps avg|Закадровый многоголосый, ТакТреба Продакшн|
Аудио#3: Russian: 48 kHz, AC3 Dolby Digital, 3/2 (L,C,R,l,r) + LFE ch, ~384.00 kbps avg|Закадровый многоголосый, Позитив|
Аудио#4: Russian: 48 kHz, AC3 Dolby Digital, 3/2 (L,C,R,l,r) + LFE ch, ~448.00 kbps avg|Закадровый двоголосий|
Аудио#5: Russian: 48 kHz, AC3 Dolby Digital, 3/2 (L,C,R,l,r) + LFE ch, ~320.00 kbps avg|Одноголосый закадровый - Михалёв|
Аудио#6: Russian: 48 kHz,DTS, 3/2 (L,C,R,l,r) + LFE ch, ~1536.00 kbps avg|Одноголосый закадровый - Живов|
Аудио#7: English: 48 kHz, DTS, 3/2 (L,C,R,l,r) + LFE ch, ~1536.00 kbps avg
Субтитры: Russian, English-

MediaInfo

General
Unique ID                                : 228464389233371340402261458126936551595 (0xABE0A40E6C2572369D4E78D33E3930AB)
Complete name                            : D:\torrent\Раздача\Крестный Отец - Трилогия BDRip\The.Godfather.1972.1080p.BluRay.x264.DTS.Rus.Ukr.Eng.HDclub.mkv
Format                                   : Matroska
Format version                           : Version 1
File size                                : 18.6 GiB
Duration                                 : 2h 57mn
Overall bit rate                         : 15.0 Mbps
Movie name                               : HDclub
Encoded date                             : UTC 2008-09-28 00:03:12
Writing application                      : mkvmerge v2.1.0 ('Another Place To Fall') built on Aug 19 2007 13:40:07
Writing library                          : libebml v0.7.7 + libmatroska v0.8.1
Video
ID                                       : 1
Format                                   : AVC
Format/Info                              : Advanced Video Codec
Format profile                           : [url=mailto:High@L4.1]High@L4.1[/url]
Format settings, CABAC                   : Yes
Format settings, ReFrames                : 4 frames
Codec ID                                 : V_MPEG4/ISO/AVC
Duration                                 : 2h 57mn
Bit rate                                 : 10.2 Mbps
Width                                    : 1 920 pixels
Height                                   : 1 080 pixels
Display aspect ratio                     : 16:9
Frame rate mode                          : Constant
Frame rate                               : 23.976 fps
Color space                              : YUV
Chroma subsampling                       : 4:2:0
Bit depth                                : 8 bits
Scan type                                : Progressive
Bits/(Pixel*Frame)                       : 0.205
Stream size                              : 12.2 GiB (66%)
Writing library                          : x264 core 59 r859M ce13bb6
Encoding settings                        : cabac=1 / ref=4 / deblock=1:-3:-3 / analyse=0x3:0x113 / me=umh / subme=6 / me-prepass=0 / brdo=1 / mixed_ref=1 / me_range=24 / chroma_me=1 / trellis=0 / 8x8dct=1 / cqm=2 / deadzone=6,6 / chroma_qp_offset=0 / threads=6 / nr=0 / decimate=1 / mbaff=0 / fgo=9 / bframes=5 / b_pyramid=1 / b_adapt=1 / b_bias=0 / direct=1 / wpredb=1 / bime=1 / keyint=250 / keyint_min=25 / scenecut=40(pre) / rc=2pass / bitrate=10196 / ratetol=1.0 / rceq='blurCplx^(1-qComp)' / qcomp=1.00 / qpmin=10 / qpmax=51 / qpstep=4 / cplxblur=20.0 / qblur=0.5 / ip_ratio=1.40 / pb_ratio=1.16 / aq=2:1.00
Language                                 : English
Default                                  : Yes
Forced                                   : No
Audio #1
ID                                       : 2
Format                                   : AC-3
Format/Info                              : Audio Coding 3
Mode extension                           : CM (complete main)
Format settings, Endianness              : Big
Codec ID                                 : A_AC3
Duration                                 : 2h 57mn
Bit rate mode                            : Constant
Bit rate                                 : 448 Kbps
Channel count                            : 6 channels
Channel positions                        : Front: L C R, Side: L R, LFE
Sampling rate                            : 48.0 KHz
Bit depth                                : 16 bits
Compression mode                         : Lossy
Stream size                              : 568 MiB (3%)
Title                                    : Закадровий багатоголосий, Кіноманія
Language                                 : Russian
Default                                  : Yes
Forced                                   : No
Audio #2
ID                                       : 3
Format                                   : AC-3
Format/Info                              : Audio Coding 3
Mode extension                           : CM (complete main)
Format settings, Endianness              : Big
Codec ID                                 : A_AC3
Duration                                 : 2h 57mn
Bit rate mode                            : Constant
Bit rate                                 : 192 Kbps
Channel count                            : 2 channels
Channel positions                        : Front: L R
Sampling rate                            : 48.0 KHz
Bit depth                                : 16 bits
Compression mode                         : Lossy
Stream size                              : 243 MiB (1%)
Title                                    : Закадровий багатоголосий
Language                                 : Ukrainian
Default                                  : No
Forced                                   : No
Audio #3
ID                                       : 4
Format                                   : AC-3
Format/Info                              : Audio Coding 3
Mode extension                           : CM (complete main)
Format settings, Endianness              : Big
Codec ID                                 : A_AC3
Duration                                 : 2h 57mn
Bit rate mode                            : Constant
Bit rate                                 : 384 Kbps
Channel count                            : 6 channels
Channel positions                        : Front: L C R, Side: L R, LFE
Sampling rate                            : 48.0 KHz
Bit depth                                : 16 bits
Compression mode                         : Lossy
Stream size                              : 487 MiB (3%)
Title                                    : Закадровий багатоголосий, Позитив
Language                                 : Russian
Default                                  : No
Forced                                   : No
Audio #4
ID                                       : 5
Format                                   : AC-3
Format/Info                              : Audio Coding 3
Mode extension                           : CM (complete main)
Format settings, Endianness              : Big
Codec ID                                 : A_AC3
Duration                                 : 2h 57mn
Bit rate mode                            : Constant
Bit rate                                 : 448 Kbps
Channel count                            : 6 channels
Channel positions                        : Front: L C R, Side: L R, LFE
Sampling rate                            : 48.0 KHz
Bit depth                                : 16 bits
Compression mode                         : Lossy
Stream size                              : 568 MiB (3%)
Title                                    : Закадровий двоголосий
Language                                 : Russian
Default                                  : No
Forced                                   : No
Audio #5
ID                                       : 6
Format                                   : AC-3
Format/Info                              : Audio Coding 3
Mode extension                           : CM (complete main)
Format settings, Endianness              : Big
Codec ID                                 : A_AC3
Duration                                 : 2h 57mn
Bit rate mode                            : Constant
Bit rate                                 : 320 Kbps
Channel count                            : 6 channels
Channel positions                        : Front: L C R, Side: L R, LFE
Sampling rate                            : 48.0 KHz
Bit depth                                : 16 bits
Compression mode                         : Lossy
Stream size                              : 405 MiB (2%)
Title                                    : Закадровий одноголосий, Михалёв
Language                                 : Russian
Default                                  : No
Forced                                   : No
Audio #6
ID                                       : 7
Format                                   : DTS
Format/Info                              : Digital Theater Systems
Mode                                     : 16
Format settings, Endianness              : Big
Codec ID                                 : A_DTS
Duration                                 : 2h 57mn
Bit rate mode                            : Constant
Bit rate                                 : 1 510 Kbps
Channel count                            : 6 channels
Channel positions                        : Front: L C R, Side: L R, LFE
Sampling rate                            : 48.0 KHz
Bit depth                                : 24 bits
Compression mode                         : Lossy
Stream size                              : 1.87 GiB (10%)
Title                                    : Закадровий одноголосий, Живов
Language                                 : Russian
Default                                  : No
Forced                                   : No
Audio #7
ID                                       : 8
Format                                   : DTS
Format/Info                              : Digital Theater Systems
Mode                                     : 16
Format settings, Endianness              : Big
Codec ID                                 : A_DTS
Duration                                 : 2h 57mn
Bit rate mode                            : Constant
Bit rate                                 : 1 510 Kbps
Channel count                            : 6 channels
Channel positions                        : Front: L C R, Side: L R, LFE
Sampling rate                            : 48.0 KHz
Bit depth                                : 24 bits
Compression mode                         : Lossy
Stream size                              : 1.87 GiB (10%)
Language                                 : English
Default                                  : No
Forced                                   : No
Text #1
ID                                       : 9
Format                                   : UTF-8
Codec ID                                 : S_TEXT/UTF8
Codec ID/Info                            : UTF-8 Plain Text
Default                                  : Yes
Forced                                   : No
Text #2
ID                                       : 10
Format                                   : UTF-8
Codec ID                                 : S_TEXT/UTF8
Codec ID/Info                            : UTF-8 Plain Text
Default                                  : No
Forced                                   : No
Скриншоты:

Крёстный отец 2

Крестный отец 2 / The Godfather: Part II (1974) BDRip- Год выпуска: 1974
Жанр: Драма, Криминал
Описание фильма:
В центре драмы представители нового поколения гангстерского клана — дона Корлеоне и его сына, для которых не существует моральных преград на пути достижения поставленых целей. Они превращают мафию, построенную по патриархальным, еще сицилийским законам, в весьма прагматичную, жесткую корпорацию, плавно интегрирующуюся в большой бизнес Америки.
Режиссер: Френсис Форд Коппола
Актеры: Марлон Брандо, Аль Пачино, Джеймс Каан, Ричард Кастеллано, Дайэн Китон, Талия Шайр, Роберт Дювалл, Стерлинг Хэйден, Ричард Конте, Джон Марли, Аль Леттьери
Продолжительность: 03:22:06
Качество видео: BDRip
Перевод: Многоголосый закадровый

Дата мировой премьеры: 12 декабря 1974
Дата выхода DVD релиза: 24 ноября 2009, «Юниверсал Пикчерс Рус»
Формат: MKV
Видео: 1920x1080 (1:78:1) at 23.976 fps, x264, 2PASS HIGH @ L4.1 (DXVA), ~9735 Kbps avg
Аудио#1: Russian: 48 kHz, AC3 Dolby Digital, 3/2 (L,C,R,l,r) + LFE ch, ~448.00 kbps avg|Закадровый многоголосый, Киномания|
Аудио#2: Ukrainian: 48 kHz, AC3 Dolby Digital, 2 (L, R) ch, ~192.00 kbps avg|Закадровый многоголосый, ТакТреба Продакшн|
Аудио#3: Russian: 48 kHz, AC3 Dolby Digital, 3/2 (L,C,R,l,r) + LFE ch, ~448.00 kbps avg|Закадровый двоголосий|
Аудио#4: Russian: 48 kHz, AC3 Dolby Digital, 3/2 (L,C,R,l,r) + LFE ch, ~320.00 kbps avg|Одноголосый закадровый - Михалёв|
Аудио#5: Russian: 48 kHz,DTS, 3/2 (L,C,R,l,r) + LFE ch, ~1536.00 kbps avg|Одноголосый закадровый - Живов|
Аудио#6: English: 48 kHz, DTS, 3/2 (L,C,R,l,r) + LFE ch, ~1536.00 kbps avg
Субтитры: Russian, English-

MediaInfo

General
Unique ID                                : 175651364447464711252293222436587410580 (0x842538E5C804F7A596F11624A1C79494)
Complete name                            : D:\torrent\Раздача\Крестный Отец - Трилогия BDRip\The.Godfather.Part.II.1974.1080p.BluRay.x264.DTS.Rus.Ukr.Eng.HDclub.mkv
Format                                   : Matroska
Format version                           : Version 1
File size                                : 20.0 GiB
Duration                                 : 3h 22mn
Overall bit rate                         : 14.1 Mbps
Movie name                               : HDclub
Encoded date                             : UTC 2008-09-28 01:02:44
Writing application                      : mkvmerge v2.1.0 ('Another Place To Fall') built on Aug 19 2007 13:40:07
Writing library                          : libebml v0.7.7 + libmatroska v0.8.1
Video
ID                                       : 1
Format                                   : AVC
Format/Info                              : Advanced Video Codec
Format profile                           : [url=mailto:High@L4.1]High@L4.1[/url]
Format settings, CABAC                   : Yes
Format settings, ReFrames                : 4 frames
Codec ID                                 : V_MPEG4/ISO/AVC
Duration                                 : 3h 22mn
Bit rate                                 : 9 735 Kbps
Width                                    : 1 920 pixels
Height                                   : 1 080 pixels
Display aspect ratio                     : 16:9
Frame rate mode                          : Constant
Frame rate                               : 23.976 fps
Color space                              : YUV
Chroma subsampling                       : 4:2:0
Bit depth                                : 8 bits
Scan type                                : Progressive
Bits/(Pixel*Frame)                       : 0.196
Stream size                              : 13.3 GiB (67%)
Writing library                          : x264 core 59 r859M ce13bb6
Encoding settings                        : cabac=1 / ref=4 / deblock=1:-3:-3 / analyse=0x3:0x113 / me=umh / subme=6 / me-prepass=0 / brdo=1 / mixed_ref=1 / me_range=24 / chroma_me=1 / trellis=0 / 8x8dct=1 / cqm=2 / deadzone=6,6 / chroma_qp_offset=0 / threads=6 / nr=0 / decimate=1 / mbaff=0 / fgo=9 / bframes=5 / b_pyramid=1 / b_adapt=1 / b_bias=0 / direct=1 / wpredb=1 / bime=1 / keyint=250 / keyint_min=25 / scenecut=40(pre) / rc=2pass / bitrate=9735 / ratetol=1.0 / rceq='blurCplx^(1-qComp)' / qcomp=1.00 / qpmin=10 / qpmax=51 / qpstep=4 / cplxblur=20.0 / qblur=0.5 / ip_ratio=1.40 / pb_ratio=1.16 / aq=2:1.00
Language                                 : English
Default                                  : Yes
Forced                                   : No
Audio #1
ID                                       : 2
Format                                   : AC-3
Format/Info                              : Audio Coding 3
Mode extension                           : CM (complete main)
Format settings, Endianness              : Big
Codec ID                                 : A_AC3
Duration                                 : 3h 22mn
Bit rate mode                            : Constant
Bit rate                                 : 448 Kbps
Channel count                            : 6 channels
Channel positions                        : Front: L C R, Side: L R, LFE
Sampling rate                            : 48.0 KHz
Bit depth                                : 16 bits
Compression mode                         : Lossy
Stream size                              : 649 MiB (3%)
Title                                    : Закадровый многоголосый, Киномания
Language                                 : Russian
Default                                  : Yes
Forced                                   : No
Audio #2
ID                                       : 3
Format                                   : AC-3
Format/Info                              : Audio Coding 3
Mode extension                           : CM (complete main)
Format settings, Endianness              : Big
Codec ID                                 : A_AC3
Duration                                 : 3h 22mn
Bit rate mode                            : Constant
Bit rate                                 : 192 Kbps
Channel count                            : 2 channels
Channel positions                        : Front: L R
Sampling rate                            : 48.0 KHz
Bit depth                                : 16 bits
Compression mode                         : Lossy
Stream size                              : 278 MiB (1%)
Title                                    : Закадровый многоголосый
Language                                 : Ukrainian
Default                                  : No
Forced                                   : No
Audio #3
ID                                       : 4
Format                                   : AC-3
Format/Info                              : Audio Coding 3
Mode extension                           : CM (complete main)
Format settings, Endianness              : Big
Codec ID                                 : A_AC3
Duration                                 : 3h 22mn
Bit rate mode                            : Constant
Bit rate                                 : 448 Kbps
Channel count                            : 6 channels
Channel positions                        : Front: L C R, Side: L R, LFE
Sampling rate                            : 48.0 KHz
Bit depth                                : 16 bits
Compression mode                         : Lossy
Stream size                              : 649 MiB (3%)
Title                                    : Закадровый двоголосий
Language                                 : Russian
Default                                  : No
Forced                                   : No
Audio #4
ID                                       : 5
Format                                   : AC-3
Format/Info                              : Audio Coding 3
Mode extension                           : CM (complete main)
Format settings, Endianness              : Big
Codec ID                                 : A_AC3
Duration                                 : 3h 22mn
Bit rate mode                            : Constant
Bit rate                                 : 320 Kbps
Channel count                            : 6 channels
Channel positions                        : Front: L C R, Side: L R, LFE
Sampling rate                            : 48.0 KHz
Bit depth                                : 16 bits
Compression mode                         : Lossy
Stream size                              : 464 MiB (2%)
Title                                    : Одноголосый закадровый, Михалёв
Language                                 : Russian
Default                                  : No
Forced                                   : No
Audio #5
ID                                       : 6
Format                                   : DTS
Format/Info                              : Digital Theater Systems
Mode                                     : 16
Format settings, Endianness              : Big
Codec ID                                 : A_DTS
Duration                                 : 3h 22mn
Bit rate mode                            : Constant
Bit rate                                 : 1 510 Kbps
Channel count                            : 6 channels
Channel positions                        : Front: L C R, Side: L R, LFE
Sampling rate                            : 48.0 KHz
Bit depth                                : 24 bits
Compression mode                         : Lossy
Stream size                              : 2.14 GiB (11%)
Title                                    : Одноголосый закадровый, Живов
Language                                 : Russian
Default                                  : No
Forced                                   : No
Audio #6
ID                                       : 7
Format                                   : DTS
Format/Info                              : Digital Theater Systems
Mode                                     : 16
Format settings, Endianness              : Big
Codec ID                                 : A_DTS
Duration                                 : 3h 22mn
Bit rate mode                            : Constant
Bit rate                                 : 1 510 Kbps
Channel count                            : 6 channels
Channel positions                        : Front: L C R, Side: L R, LFE
Sampling rate                            : 48.0 KHz
Bit depth                                : 24 bits
Compression mode                         : Lossy
Stream size                              : 2.14 GiB (11%)
Language                                 : English
Default                                  : No
Forced                                   : No
Text #1
ID                                       : 8
Format                                   : UTF-8
Codec ID                                 : S_TEXT/UTF8
Codec ID/Info                            : UTF-8 Plain Text
Language                                 : Russian
Default                                  : Yes
Forced                                   : No
Text #2
ID                                       : 9
Format                                   : UTF-8
Codec ID                                 : S_TEXT/UTF8
Codec ID/Info                            : UTF-8 Plain Text
Language                                 : English
Default                                  : No
Forced                                   : No
Скриншоты:

Крёстный отец 3

Крестный отец 3 / The Godfather: Part III(1990) BDRip- Год выпуска: 1990
Жанр: Драма, Криминал
Описание фильма:
Заключительная часть знаменитой гангстерской эпопеи, в которой продолжается рассказ о делах «семьи» дона Корлеоне. Через двадцать лет после событий, описанных в предыдущей картине, Майкл Корлеоне решает заняться легальным бизнесом. Однако противодействие внутри клана заставляет его вспомнить об испытанных кровавых методах общения с противником, что приводит к трагическому итогу.
Режиссер: Френсис Форд Коппола
Актеры: Марлон Брандо, Аль Пачино, Джеймс Каан, Ричард Кастеллано, Дайэн Китон, Талия Шайр, Роберт Дювалл, Стерлинг Хэйден, Ричард Конте, Джон Марли, Аль Леттьери
Продолжительность: 02:50:15
Качество видео: BDRip
Перевод: Многоголосый закадровый

Дата мировой премьеры: 20 декабря 1990
Дата выхода DVD релиза: 24 ноября 2009, «Юниверсал Пикчерс Рус»
Формат: MKV
Видео: 1920x1080 (1:78:1) at 23.976 fps, x264, 2PASS HIGH @ L4.1 (DXVA), ~10.671 Kbps avg
Аудио#1: Russian: 48 kHz, AC3 Dolby Digital, 3/2 (L,C,R,l,r) + LFE ch, ~448.00 kbps avg|Закадровый многоголосый, Киномания|
Аудио#2: Ukrainian: 48 kHz, AC3 Dolby Digital, 2 (L, R) ch, ~192.00 kbps avg|Закадровый многоголосый, ТакТреба Продакшн|
Аудио#3: Russian: 48 kHz, AC3 Dolby Digital, 3/2 (L,C,R,l,r) + LFE ch, ~448.00 kbps avg|Закадровый двоголосий|
Аудио#4: Russian: 48 kHz,DTS, 3/2 (L,C,R,l,r) + LFE ch, ~1536.00 kbps avg|Одноголосый закадровый - Живов|
Аудио#5: English: 48 kHz, DTS, 3/2 (L,C,R,l,r) + LFE ch, ~1536.00 kbps avg
Субтитры: Russian, English-

MediaInfo

General
Unique ID                                : 186798306437095819998651746309562229880 (0x8C880B91C16917CCBF635929D1D8E478)
Complete name                            : D:\torrent\Раздача\Крестный Отец - Трилогия BDRip\The.Godfather.Part.III.1990.1080p.BluRay.x264.DTS.Rus.Ukr.Eng.HDclub.mkv
Format                                   : Matroska
Format version                           : Version 1
File size                                : 17.6 GiB
Duration                                 : 2h 50mn
Overall bit rate                         : 14.8 Mbps
Movie name                               : HDclub
Encoded date                             : UTC 2008-09-27 23:40:09
Writing application                      : mkvmerge v2.1.0 ('Another Place To Fall') built on Aug 19 2007 13:40:07
Writing library                          : libebml v0.7.7 + libmatroska v0.8.1
Video
ID                                       : 1
Format                                   : AVC
Format/Info                              : Advanced Video Codec
Format profile                           : [url=mailto:High@L4.1]High@L4.1[/url]
Format settings, CABAC                   : Yes
Format settings, ReFrames                : 4 frames
Codec ID                                 : V_MPEG4/ISO/AVC
Duration                                 : 2h 50mn
Bit rate                                 : 10.7 Mbps
Width                                    : 1 920 pixels
Height                                   : 1 080 pixels
Display aspect ratio                     : 16:9
Frame rate mode                          : Constant
Frame rate                               : 23.976 fps
Color space                              : YUV
Chroma subsampling                       : 4:2:0
Bit depth                                : 8 bits
Scan type                                : Progressive
Bits/(Pixel*Frame)                       : 0.215
Stream size                              : 12.3 GiB (70%)
Writing library                          : x264 core 59 r859M ce13bb6
Encoding settings                        : cabac=1 / ref=4 / deblock=1:-3:-3 / analyse=0x3:0x113 / me=umh / subme=6 / me-prepass=0 / brdo=1 / mixed_ref=1 / me_range=24 / chroma_me=1 / trellis=0 / 8x8dct=1 / cqm=2 / deadzone=6,6 / chroma_qp_offset=0 / threads=6 / nr=0 / decimate=1 / mbaff=0 / fgo=9 / bframes=5 / b_pyramid=1 / b_adapt=1 / b_bias=0 / direct=1 / wpredb=1 / bime=1 / keyint=250 / keyint_min=25 / scenecut=40(pre) / rc=2pass / bitrate=10671 / ratetol=1.0 / rceq='blurCplx^(1-qComp)' / qcomp=1.00 / qpmin=10 / qpmax=51 / qpstep=4 / cplxblur=20.0 / qblur=0.5 / ip_ratio=1.40 / pb_ratio=1.16 / aq=2:1.00
Language                                 : English
Default                                  : Yes
Forced                                   : No
Audio #1
ID                                       : 2
Format                                   : AC-3
Format/Info                              : Audio Coding 3
Mode extension                           : CM (complete main)
Format settings, Endianness              : Big
Codec ID                                 : A_AC3
Duration                                 : 2h 50mn
Bit rate mode                            : Constant
Bit rate                                 : 448 Kbps
Channel count                            : 6 channels
Channel positions                        : Front: L C R, Side: L R, LFE
Sampling rate                            : 48.0 KHz
Bit depth                                : 16 bits
Compression mode                         : Lossy
Stream size                              : 546 MiB (3%)
Title                                    : Закадровий багатоголосий
Language                                 : Russian
Default                                  : Yes
Forced                                   : No
Audio #2
ID                                       : 3
Format                                   : AC-3
Format/Info                              : Audio Coding 3
Mode extension                           : CM (complete main)
Format settings, Endianness              : Big
Codec ID                                 : A_AC3
Duration                                 : 2h 50mn
Bit rate mode                            : Constant
Bit rate                                 : 192 Kbps
Channel count                            : 2 channels
Channel positions                        : Front: L R
Sampling rate                            : 48.0 KHz
Bit depth                                : 16 bits
Compression mode                         : Lossy
Stream size                              : 234 MiB (1%)
Title                                    : Закадровий багатоголосий
Language                                 : Ukrainian
Default                                  : No
Forced                                   : No
Audio #3
ID                                       : 4
Format                                   : AC-3
Format/Info                              : Audio Coding 3
Mode extension                           : CM (complete main)
Format settings, Endianness              : Big
Codec ID                                 : A_AC3
Duration                                 : 2h 50mn
Bit rate mode                            : Constant
Bit rate                                 : 448 Kbps
Channel count                            : 6 channels
Channel positions                        : Front: L C R, Side: L R, LFE
Sampling rate                            : 48.0 KHz
Bit depth                                : 16 bits
Compression mode                         : Lossy
Stream size                              : 546 MiB (3%)
Title                                    : Закадровий двоголосий
Language                                 : Russian
Default                                  : No
Forced                                   : No
Audio #4
ID                                       : 5
Format                                   : DTS
Format/Info                              : Digital Theater Systems
Mode                                     : 16
Format settings, Endianness              : Big
Codec ID                                 : A_DTS
Duration                                 : 2h 50mn
Bit rate mode                            : Constant
Bit rate                                 : 1 510 Kbps
Channel count                            : 6 channels
Channel positions                        : Front: L C R, Side: L R, LFE
Sampling rate                            : 48.0 KHz
Bit depth                                : 24 bits
Compression mode                         : Lossy
Stream size                              : 1.80 GiB (10%)
Title                                    : Закадровий одноголосий, Живов
Language                                 : Russian
Default                                  : No
Forced                                   : No
Audio #5
ID                                       : 6
Format                                   : DTS
Format/Info                              : Digital Theater Systems
Mode                                     : 16
Format settings, Endianness              : Big
Codec ID                                 : A_DTS
Duration                                 : 2h 50mn
Bit rate mode                            : Constant
Bit rate                                 : 1 510 Kbps
Channel count                            : 6 channels
Channel positions                        : Front: L C R, Side: L R, LFE
Sampling rate                            : 48.0 KHz
Bit depth                                : 24 bits
Compression mode                         : Lossy
Stream size                              : 1.80 GiB (10%)
Language                                 : English
Default                                  : No
Forced                                   : No
Text #1
ID                                       : 7
Format                                   : UTF-8
Codec ID                                 : S_TEXT/UTF8
Codec ID/Info                            : UTF-8 Plain Text
Language                                 : Russian
Default                                  : Yes
Forced                                   : No
Text #2
ID                                       : 8
Format                                   : ASS
Codec ID                                 : S_TEXT/ASS
Codec ID/Info                            : Advanced Sub Station Alpha
Compression mode                         : Lossless
Language                                 : English
Default                                  : No
Forced                                   : No
Скриншоты:
---
[Профиль] [ЛС]
Кто просматривает тему:

Форум Тема Автор Размер
Фантастика, фэнтези Андрей Дай | Андреевский крест (2015) [FB2] достали все 1 MB
Фильмы (HD DVD, Blu-ray и BDRemux) Барышня-крестьянка (Алексей Сахаров) [1995, Россия, мелодрама, BDRip 720p] painkiller 6.28 GB
Фильмы (HD Rips | 720p, 1080p) Барышня-крестьянка (Алексей Сахаров) [1995, Россия, мелодрама, Blu-ray disc, 1080p] TorrentFilm 22.97 GB
R.G.TorrentFilm Video Джереми Кларксон: Крест Виктории: За доблесть / Jeremy Clarkson: The Victoria Cross: For Valour (Ричард Пирсон / Richard Pearson) [2003 г., Документальный, военный, DVDRip] VO (FocusStudio) Один 777 500 MB
Фильмы (HD Rips | 720p, 1080p) Железный крест / Cross of Iron (1977) BDRip 720p от HQ-ViDEO | P Russian Mafia 7.91 GB
Фильмы (DVD 5/9) Каменный крест / Камінний хрест (Леонид Осыка / Леонід Осика) [1968, СССР, Кинопритча, драма, экранизация, DVD9] Orig (Uk) + Ru, Sub (Uk, Ru, En) • Реставрация TorrentFilm 5.49 GB
Документальные HD Крест (Ирина Прокудина, Аркадий Мамонтов) [2014, Документальный, Россия HD, HDTV 1080i] TorrentFilm 3.85 GB
Классика зарубежного кино Крест накрест / Criss Cross (1949) DVDRip от egoleshik | A Russian Mafia 1.37 GB
Показать сообщения:    

Текущее время: Сегодня 06:08

Часовой пояс: GMT



Вы не можете начинать темы
Вы не можете отвечать на сообщения
Вы не можете редактировать свои сообщения
Вы не можете удалять свои сообщения
Вы не можете голосовать в опросах
Вы не можете прикреплять файлы к сообщениям
Вы не можете скачивать файлы