Крепость: щитом и мечом (2015) BDRip 1080p | Лицензия

 
Автор Сообщение

достали все ®

Пол:

Стаж: 1 год 8 месяцев

Сообщений: 6585



Награды: 12 (Подробнее)

Mega Seeder 5 (Количество: 1) Mega Releaser 1 (Количество: 1) Top Releaser 4 (Количество: 1)
Торрент-статистика

Создавать темы 26-Янв-2016 10:38

[Цитировать]

Информация о фильме
Название: Крепость: щитом и мечом
Год выхода: 2015
Жанр: мультфильм, приключения, военный, семейный
Режиссер: Федор Дмитриев
В ролях: Пётр Фёдоров, Евгений Стычкин, Елена Шульман, Екатерина Гороховская, Вадим Никитин, Олег Куликович, Сергей Русскин, Михаил Хрусталев, Анатолий Петров
О фильме: 1609 год. Идет война. Польско-литовские войска взяли в осаду Смоленск, но русский гарнизон во главе с воеводой Михаилом Шеиным готов держать оборону до конца. Смоленск — главная крепость на пути захватчиков к Москве, и его нельзя сдавать без боя. Об этом знают даже дети.
Мальчик Сашка лепит самодельные бомбы из теста и колдует в защиту города — вызывает на помощь Царя с Огненным щитом и Пламенным копьем. Пока волшебный царь не пришел, Сашка и его друг Федор просятся в помощники к воеводе. Им предстоит разрушить коварные планы польского короля Сигизмунда Третьего и справиться с нечистой силой, что по ночам бродит по осажденной крепости.

Выпущено: Анимационная студия Мельница
Продолжительность: 01:16:53
Перевод: Оригинал (лицензия)
Файл
Кодек: x264
Качество: BDRip (источник: Blu-ray Disc)
Видео: 1920x804 (2,40:1), 24 fps, 3630 kbps
Аудио: AC-3, 6 ch, 448 kbps
Скачать: сэмпл
Скриншоты

MI

Общее
Уникальный идентификатор : 250616147434033453198606655604477700631 (0xBC8AEA0ED853AFCE957BE93B175CAA17)
Полное имя : Krepost.2015.BDRip.1080p.Rus.mkv
Формат : Matroska
Версия формата : Version 2
Размер файла : 2,19 Гбайт
Продолжительность : 1 ч. 16 м.
Общий поток : 4079 Кбит/сек
Название фильма : Крепость: щитом и мечом (2015)
Дата кодирования : UTC 2016-01-25 17:34:45
Программа кодирования : mkvmerge v5.8.0 ('No Sleep / Pillow') built on Sep 2 2012 15:37:04
Библиотека кодирования : libebml v1.2.3 + libmatroska v1.3.0
Видео
Идентификатор : 1
Формат : AVC
Формат/Информация : Advanced Video Codec
Профиль формата : High@L4.1
Параметр CABAC формата : Да
Параметр ReFrames формата : 5 кадров
Идентификатор кодека : V_MPEG4/ISO/AVC
Продолжительность : 1 ч. 16 м.
Битрейт : 3629 Кбит/сек
Ширина : 1920 пикселей
Высота : 804 пикселя
Соотношение сторон : 2,40:1
Режим частоты кадров : Постоянный
Частота кадров : 24,000 кадра/сек
Цветовое пространство : YUV
Субдискретизация насыщенности : 4:2:0
Битовая глубина : 8 бит
Тип развёртки : Прогрессивная
Бит/(Пиксели*Кадры) : 0.098
Размер потока : 1,91 Гбайт (87%)
Заголовок : Release by AlexKa
Библиотека кодирования : x264 core 148 r2665 a01e339
Настройки программы : cabac=1 / ref=5 / deblock=1:0:0 / analyse=0x3:0x133 / me=umh / subme=11 / psy=1 / psy_rd=1.00:0.00 / mixed_ref=1 / me_range=32 / chroma_me=1 / trellis=2 / 8x8dct=1 / cqm=0 / deadzone=21,11 / fast_pskip=0 / chroma_qp_offset=-2 / threads=12 / lookahead_threads=3 / sliced_threads=0 / nr=0 / decimate=0 / interlaced=0 / bluray_compat=0 / constrained_intra=0 / bframes=12 / b_pyramid=2 / b_adapt=2 / b_bias=0 / direct=3 / weightb=1 / open_gop=0 / weightp=2 / keyint=240 / keyint_min=24 / scenecut=40 / intra_refresh=0 / rc=2pass / mbtree=0 / bitrate=3629 / ratetol=1.0 / qcomp=0.60 / qpmin=0 / qpmax=69 / qpstep=4 / cplxblur=20.0 / qblur=0.5 / ip_ratio=1.40 / pb_ratio=1.30 / aq=1:1.00
Язык : Russian
Аудио
Идентификатор : 2
Формат : AC-3
Формат/Информация : Audio Coding 3
Расширение режима : CM (complete main)
Параметр Endianness формата : Big
Идентификатор кодека : A_AC3
Продолжительность : 1 ч. 16 м.
Вид битрейта : Постоянный
Битрейт : 448 Кбит/сек
Каналы : 6 каналов
Расположение каналов : Front: L C R, Side: L R, LFE
Частота : 48,0 КГц
Метод сжатия : С потерями
Размер потока : 246 Мбайт (11%)
Заголовок : Rus
Язык : Russian
Меню
00:00:00.000 : :Chapter 01
00:06:57.041 : :Chapter 02
00:11:47.083 : :Chapter 03
00:18:53.583 : :Chapter 04
00:22:58.666 : :Chapter 05
00:29:04.666 : :Chapter 06
00:37:31.166 : :Chapter 07
00:44:49.250 : :Chapter 08
00:49:38.041 : :Chapter 09
00:55:17.000 : :Chapter 10
01:03:54.875 : :Chapter 11
01:11:31.625 : :Chapter 12

x264

x264 [info]: frame I:1151 Avg QP: 9.00 size:178898
x264 [info]: frame P:30392 Avg QP:13.61 size: 34299
x264 [info]: frame B:79178 Avg QP:14.86 size: 10664
x264 [info]: consecutive B-frames: 5.0% 7.2% 13.5% 35.4% 13.5% 18.3% 1.8% 0.9% 0.9% 0.5% 0.6% 1.1% 1.3%
[Профиль] [ЛС]
Показать сообщения:    

Текущее время: Сегодня 08:03

Часовой пояс: GMT



Вы не можете начинать темы
Вы не можете отвечать на сообщения
Вы не можете редактировать свои сообщения
Вы не можете удалять свои сообщения
Вы не можете голосовать в опросах
Вы не можете прикреплять файлы к сообщениям
Вы не можете скачивать файлы