Крепость: щитом и мечом (2015) BDRip | Лицензия

 
Автор Сообщение

BOSS ®

Пол:

Стаж: 2 года 1 месяц

Сообщений: 3738

Откуда: ODESSA



Награды: 20 (Подробнее)

Mega Seeder 1 (Количество: 1) За внесенный вклад в развитие сайта (Количество: 1) Top Keeper 3 (Количество: 1)
Торрент-статистика

Создавать темы 22-Янв-2016 17:10

[Цитировать]

Информация о фильме
Название: Крепость: щитом и мечом
Год выхода: 2015
Жанр: Мультфильм, приключения, военный
Режиссер: Федор Дмитриев
Озвучивали: Пётр Фёдоров, Евгений Стычкин, Елена Шульман, Екатерина Гороховская, Вадим Никитин
О фильме:
1609 год. Идет война. Польско-литовские войска взяли в осаду Смоленск, но русский гарнизон во главе с воеводой Михаилом Шеиным готов держать оборону до конца. Смоленск — главная крепость на пути захватчиков к Москве, и его нельзя сдавать без боя. Об этом знают даже дети.
Мальчик Сашка лепит самодельные бомбы из теста и колдует в защиту города — вызывает на помощь Царя с Огненным щитом и Пламенным копьем. Пока волшебный царь не пришел, Сашка и его друг Федор просятся в помощники к воеводе. Им предстоит разрушить коварные планы польского короля Сигизмунда Третьего и справиться с нечистой силой, что по ночам бродит по осажденной крепости.

Страна: Россия, Кинокомпания CTB, Анимационная студия Мельница
Продолжительность: 01:16:53
Перевод: Не требуется
Файл
Качество: BDRip (исх.HDclub / Крепость: щитом и мечом (2015) Blu-ray RUS 1080p AVC DTS 5.1)
Кодек: XviD
Видео: 720x304 (2,35:1), 24 fps, XviD ~1214 kbps avg, 0.231 bit/pixel
Звук: MP3, 48 kHz, 2 ch, ~128.00 kbps avg
Субтитры: отсутствуют
Семпл

МедиаИнфо

Общее
Полное имя : D:TorrentsЗавершенныеKrePosT.2015.O.BDRip.7OOMB.avi
Формат : AVI
Формат/Информация : Audio Video Interleave
Размер файла : 743 Мбайт
Продолжительность : 1 ч. 16 м.
Общий поток : 1351 Кбит/сек
Программа кодирования : VirtualDubMod 1.5.10.3 (build 2550/release)
Библиотека кодирования : VirtualDubMod build 2550/release
Видео
Идентификатор : 0
Формат : MPEG-4 Visual
Профиль формата : Advanced Simple@L5
Параметр BVOP формата : 2
Параметр QPel формата : Нет
Параметр GMC формата : Без точки перехода
Параметр матрицы формата : Default (MPEG)
Идентификатор кодека : XVID
Идентификатор кодека/Подсказка : XviD
Продолжительность : 1 ч. 16 м.
Битрейт : 1214 Кбит/сек
Ширина : 720 пикселей
Высота : 304 пикселя
Соотношение сторон : 2,35:1
Частота кадров : 24,000 кадра/сек
Цветовое пространство : YUV
Субдискретизация насыщенности : 4:2:0
Битовая глубина : 8 бит
Тип развёртки : Прогрессивная
Метод сжатия : С потерями
Бит/(Пиксели*Кадры) : 0.231
Размер потока : 668 Мбайт (90%)
Библиотека кодирования : XviD 73
Аудио
Идентификатор : 1
Формат : MPEG Audio
Версия формата : Version 1
Профиль формата : Layer 3
Режим : Joint stereo
Идентификатор кодека : 55
Идентификатор кодека/Подсказка : MP3
Продолжительность : 1 ч. 16 м.
Вид битрейта : Постоянный
Битрейт : 128 Кбит/сек
Каналы : 2 канала
Частота : 48,0 КГц
Метод сжатия : С потерями
Размер потока : 70,4 Мбайт (9%)
Выравнивание : Соединение по промежуткам
Продолжительность промежутка : 42 мс. (1,00 видеокадр)
Время предзагрузки промежутка : 504 мс.
Библиотека кодирования : LAME3.97

Скриншоты

[Профиль] [ЛС]
Показать сообщения:    

Текущее время: Сегодня 22:24

Часовой пояс: GMT



Вы не можете начинать темы
Вы не можете отвечать на сообщения
Вы не можете редактировать свои сообщения
Вы не можете удалять свои сообщения
Вы не можете голосовать в опросах
Вы не можете прикреплять файлы к сообщениям
Вы не можете скачивать файлы