Крепость: щитом и мечом (2015) WEB-DL 720p | iTunes

 
Автор Сообщение

BOSS ®

Пол:

Стаж: 2 года 2 месяца

Сообщений: 3750

Откуда: ODESSA



Награды: 20 (Подробнее)

Top Keeper 1 (Количество: 1) Top Seeder 5 (Количество: 1) Top Releaser 3 (Количество: 1)
Торрент-статистика

Создавать темы 15-Ноя-2015 20:41

[Цитировать]

Информация о фильме
Название: Крепость: щитом и мечом
Оригинальное название: Крепость: щитом и мечом
Год выхода: 2015
Жанр: мультфильм, приключения, военный
Режиссер: Федор Дмитриев
В ролях: Пётр Фёдоров, Евгений Стычкин
О фильме: 1609 год. Идет война. Польско-литовские войска взяли в осаду Смоленск, но русский гарнизон во главе с воеводой Михаилом Шеиным готов держать оборону до конца. Смоленск — главная крепость на пути захватчиков к Москве, и его нельзя сдавать без боя. Об этом знают даже дети. Мальчик Сашка лепит самодельные бомбы из теста и колдует в защиту города — вызывает на помощь Царя с Огненным щитом и Пламенным копьем. Пока волшебный царь не пришел, Сашка и его друг Федор просятся в помощники к воеводе. Им предстоит разрушить коварные планы польского короля Сигизмунда Третьего и справиться с нечистой силой, что по ночам бродит по осажденной крепости.

Выпущено: Россия / Кинокомпания CTB, Анимационная студия Мельница
Продолжительность: 01:16:43
Озвучивание: Оригинальное [iTunes]
Файл
Формат: MKV
Качество: WEB-DL 720p
Видео: MPEG-4 AVC, 3968 kb/s, 1280x536
Аудио: AC3, 384 kb/s (6 ch)

MI

Format : Matroska
Format version : Version 4 / Version 2
File size : 2.38 GiB
Duration : 1h 16mn
Overall bit rate : 4 441 Kbps
Encoded date : UTC 2015-11-15 19:08:24
Writing application : mkvmerge v8.3.0 ('Over the Horizon') 64bit
Writing library : libebml v1.3.1 + libmatroska v1.4.2
Video
ID : 1
Format : AVC
Format/Info : Advanced Video Codec
Format profile : Main@L3.1
Format settings, CABAC : No
Format settings, ReFrames : 2 frames
Codec ID : V_MPEG4/ISO/AVC
Duration : 1h 16mn
Bit rate : 3 968 Kbps
Width : 1 280 pixels
Height : 536 pixels
Display aspect ratio : 2.40:1
Frame rate mode : Constant
Frame rate : 24.000 fps
Color space : YUV
Chroma subsampling : 4:2:0
Bit depth : 8 bits
Scan type : Progressive
Bits/(Pixel*Frame) : 0.241
Stream size : 2.13 GiB (89%)
Language : English
Default : Yes
Forced : No
Color range : Limited
Color primaries : BT.709
Transfer characteristics : BT.709
Matrix coefficients : BT.709
Audio
ID : 2
Format : AC-3
Format/Info : Audio Coding 3
Mode extension : CM (complete main)
Format settings, Endianness : Big
Codec ID : A_AC3
Duration : 1h 16mn
Bit rate mode : Constant
Bit rate : 384 Kbps
Channel(s) : 6 channels
Channel positions : Front: L C R, Side: L R, LFE
Sampling rate : 48.0 KHz
Bit depth : 16 bits
Compression mode : Lossy
Stream size : 211 MiB (9%)
Language : Russian
Default : Yes
Forced : No
Menu
00:00:00.000 : en:Глава 1
00:06:47.000 : en:Глава 2
00:12:59.000 : en:Глава 3
00:18:42.000 : en:Глава 4
00:24:24.000 : en:Глава 5
00:29:57.000 : en:Глава 6
00:35:52.000 : en:Глава 7
00:41:03.000 : en:Глава 8
00:46:30.000 : en:Глава 9
00:51:40.000 : en:Глава 10
00:57:47.000 : en:Глава 11
01:03:44.000 : en:Глава 12
01:08:52.000 : en:Глава 13

Скриншоты

[Профиль] [ЛС]
Показать сообщения:    

Текущее время: Сегодня 10:59

Часовой пояс: GMT



Вы не можете начинать темы
Вы не можете отвечать на сообщения
Вы не можете редактировать свои сообщения
Вы не можете удалять свои сообщения
Вы не можете голосовать в опросах
Вы не можете прикреплять файлы к сообщениям
Вы не можете скачивать файлы