Крепкий орешек 4.0 / Live Free or Die Hard (Лен Уайзман / Len Wiseman)[2007, боевик, триллер, криминал, BDRip-AVC] MVO

 
Автор Сообщение

sergej644 ®

Пол:

Стаж: 4 года 11 месяцев

Сообщений: 6046

Откуда: Soviet Union



Награды: Нет

Торрент-статистика

Создавать темы 11-Авг-2014 06:30

[Цитировать]

--Крепкий орешек 4.0 / Live Free or Die Hard
Информация о фильме
Название: Крепкий орешек 4
Оригинальное название: Live Free or Die Hard
Год выхода: 2007
Жанр: боевик, триллер, криминал
Страна: США
Продолжительность: 02:08:36
Перевод: Профессиональный (многоголосый закадровый)
Режиссер: Лен Уайзман / Len Wiseman
В ролях: Брюс Уиллис, Тимоти Олифант, Джастин Лонг, Мэгги Кью, Клифф Кёртис, Джонатан Садовский, Эндрю Фридман, Кевин Смит, Йорго Константин, Сирил Раффаэлли
О фильме:
Мир опять на краю гибели из-за новой террористической угрозы. В этот раз в "заложниках" оказывается компьютерная сеть США и все системы жизнеобеспечения страны, с ней связанные. Правительство и спецслужбы бессильны, страна готова погрузиться в хаос. Но на борьбу с нависшей над миром опасностью выходит наш старый герой Джон Макклейн...


Файл
Кодек: AVC (x264)
Качество: BDRip-AVC
Видео: 1072x448 (2,40:1), 1982 kbps, 23.976 fps, 0.172 bit/pixel
Звук: AC3; 448 Kbps; CBR; 6 ch; 48 khz | Многоголосый |

Семпл

mediainfo

General
Format                           : Matroska
File size                        : 2.18 GiB
Duration                         : 2h 8mn
Overall bit rate                 : 2 430 Kbps
Encoded date                     : UTC 2014-08-10 21:23:32
Writing application              : mkvmerge v2.9.7 ('Tenderness') built on Jul  1 2009 18:43:35
Writing library                  : libebml v0.7.7 + libmatroska v0.8.1
Video
ID                               : 1
Format                           : AVC
Format/Info                      : Advanced Video Codec
Format profile                   : High@L4.1
Format settings, CABAC           : Yes
Format settings, ReFrames        : 8 frames
Muxing mode                      : Container profile=Unknown@4.1
Codec ID                         : V_MPEG4/ISO/AVC
Duration                         : 2h 8mn
Bit rate                         : 1 933 Kbps
Nominal bit rate                 : 1 982 Kbps
Width                            : 1 072 pixels
Height                           : 448 pixels
Display aspect ratio             : 2.35:1
Frame rate                       : 23.976 fps
Resolution                       : 24 bits
Colorimetry                      : 4:2:0
Scan type                        : Progressive
Bits/(Pixel*Frame)               : 0.168
Stream size                      : 1.73 GiB (79%)
Writing library                  : x264 core 125 r2208 d9d2288
Encoding settings                : cabac=1 / ref=8 / deblock=1:-3:-3 / analyse=0x3:0x111 / me=umh / subme=9 / psy=1 / psy_rd=1.00:0.00 / mixed_ref=1 / me_range=32 / chroma_me=1 / trellis=2 / 8x8dct=1 / cqm=0 / deadzone=21,11 / fast_pskip=0 / chroma_qp_offset=-2 / threads=3 / lookahead_threads=1 / sliced_threads=0 / nr=0 / decimate=1 / interlaced=0 / bluray_compat=0 / constrained_intra=0 / bframes=9 / b_pyramid=2 / b_adapt=2 / b_bias=0 / direct=3 / weightb=1 / open_gop=0 / weightp=2 / keyint=250 / keyint_min=23 / scenecut=40 / intra_refresh=0 / rc_lookahead=50 / rc=2pass / mbtree=1 / bitrate=1982 / ratetol=1.0 / qcomp=0.60 / qpmin=0 / qpmax=69 / qpstep=4 / cplxblur=20.0 / qblur=0.5 / ip_ratio=1.40 / aq=1:1.10
Audio
ID                               : 2
Format                           : AC-3
Format/Info                      : Audio Coding 3
Codec ID                         : A_AC3
Duration                         : 2h 8mn
Bit rate mode                    : Constant
Bit rate                         : 448 Kbps
Channel(s)                       : 6 channels
Channel positions                : Front: L C R, Surround: L R, LFE
Sampling rate                    : 48.0 KHz
Stream size                      : 412 MiB (18%)
Title                            : MVO
Language                         : Russian

Скриншоты

--
[Профиль] [ЛС]

Создавать темы 06-Авг-2015 23:20 (спустя 11 месяцев 26 дней)

Топик был перенесен из форума Фильмы до 2014 года в форум Фильмы до 2012 года
sergej644
 
Показать сообщения:    

Текущее время: Сегодня 15:44

Часовой пояс: GMT



Вы не можете начинать темы
Вы не можете отвечать на сообщения
Вы не можете редактировать свои сообщения
Вы не можете удалять свои сообщения
Вы не можете голосовать в опросах
Вы не можете прикреплять файлы к сообщениям
Вы не можете скачивать файлы