Крепкий орешек 3: Возмездие / Die Hard: With a Vengeance (1995) BDRip 1080p

 
Автор Сообщение

sergej644 ®

Пол:

Стаж: 4 года 11 месяцев

Сообщений: 6046

Откуда: Soviet Union



Награды: Нет

Торрент-статистика

Создавать темы 31-Окт-2014 18:41

[Цитировать]

--Крепкий орешек 3: Возмездие / Die Hard: With a Vengeance (1995)
Информация о фильме
Название: Крепкий орешек 3: Возмездие
Оригинальное название: Die Hard: With a Vengeance
Год выхода: 1995
Страна: США
Жанр: Боевик, триллер, драма, криминал
Продолжительность: 02:08:31
Перевод: Профессиональный (Многоголосый закадровый "ОРТ")
Режиссер: Джон МакТирнан
В ролях: Брюс Уиллис, Джереми Айронс, Сэмюэл Л. Джексон, Грэм Грин, Коллин Кэмп, Ларри Бриггман, Энтони Пек, Николас Уаймэн, Сэм Филлипс, Кевин Чэмберлин...-О фильме: На улицах Нью-Йорка офицер полиции Джон Макклейн видел все, что только возможно. На этот раз для того, чтобы отомстить Макклейну, террорист Саймон, виртуозно устраивающий взрывы, заставляет героя - полицейского играть в смертельную игру. Ставка - город Нью-Йорк. Макклейн вынужден метаться по городу, следуя телефонным указаниям Саймона, готового разнести пол - Нью-Йорка за малейшее отклонение от его требований. И в то время, как вся полиция города занята поисками террористов, преступники похищают золотой запас Национального банка США. У Макклейна бывали неудачные деньки за годы службы в полиции, но сегодня у него, похоже, будет исключительно скверный день…
-Файл
Кодек: x264
Формат: MKV
Качество: BDRip 1080p
Видео: AVC (High@L4.1) 1920x816 (2.35:1), 23.976 fps, 7750 kbps, 0.206 Bits/Pixel
Аудио 1: DD (AC-3) 5.1 ch, 448 kbps (Rus)
Аудио 2: DD (AC-3) 5.1 ch, 448 kbps (Eng)
Субтитры: Русские, Английские
Размер: (1/3 BD)--

MI

General
Unique ID : 227764368712331455237749205599397050428 (0xAB59D26145A3FBFD925A13EF00BF783C)
Format : Matroska
Format version : Version 2
File size : 7.75 GiB
Duration : 2h 8mn
Overall bit rate : 8 638 Kbps
Movie name : Крепкий орешек 3 (1995) BDRip (1080p)
Encoded date : UTC 2013-02-09 18:23:54
Writing application : mkvmerge v5.8.0 ('No Sleep / Pillow') built on Sep 2 2012 15:37:04
Writing library : libebml v1.2.3 + libmatroska v1.3.0
Video
ID : 1
Format : AVC
Format/Info : Advanced Video Codec
Format profile : High@L4.1
Format settings, CABAC : Yes
Format settings, ReFrames : 5 frames
Codec ID : V_MPEG4/ISO/AVC
Duration : 2h 8mn
Bit rate : 7 750 Kbps
Width : 1 920 pixels
Height : 816 pixels
Display aspect ratio : 2.35:1
Frame rate mode : Constant
Frame rate : 23.976 fps
Color space : YUV
Chroma subsampling : 4:2:0
Bit depth : 8 bits
Scan type : Progressive
Bits/(Pixel*Frame) : 0.206
Stream size : 6.80 GiB (88%)
Title : Release by Alex260680
Writing library : x264 core 129 r2245 bc13772
Encoding settings : cabac=1 / ref=5 / deblock=1:-3:-3 / analyse=0x3:0x113 / me=umh / subme=11 / psy=1 / psy_rd=1.00:0.10 / mixed_ref=1 / me_range=32 / chroma_me=1 / trellis=2 / 8x8dct=1 / cqm=0 / deadzone=21,11 / fast_pskip=0 / chroma_qp_offset=-3 / threads=12 / lookahead_threads=2 / sliced_threads=0 / nr=0 / decimate=0 / interlaced=0 / bluray_compat=0 / constrained_intra=0 / bframes=5 / b_pyramid=2 / b_adapt=2 / b_bias=0 / direct=3 / weightb=1 / open_gop=0 / weightp=2 / keyint=240 / keyint_min=23 / scenecut=40 / intra_refresh=0 / rc=2pass / mbtree=0 / bitrate=7750 / ratetol=1.0 / qcomp=0.60 / qpmin=0 / qpmax=69 / qpstep=4 / cplxblur=20.0 / qblur=0.5 / ip_ratio=1.40 / pb_ratio=1.30 / aq=1:0.70
Language : English
Default : Yes
Forced : No
Audio #1
ID : 2
Format : AC-3
Format/Info : Audio Coding 3
Mode extension : CM (complete main)
Format settings, Endianness : Big
Codec ID : A_AC3
Duration : 2h 8mn
Bit rate mode : Constant
Bit rate : 448 Kbps
Channel(s) : 6 channels
Channel positions : Front: L C R, Side: L R, LFE
Sampling rate : 48.0 KHz
Bit depth : 16 bits
Compression mode : Lossy
Stream size : 412 MiB (5%)
Title : MVO (ОРТ)
Language : Russian
Default : Yes
Forced : No
Audio #2
ID : 3
Format : AC-3
Format/Info : Audio Coding 3
Mode extension : CM (complete main)
Format settings, Endianness : Big
Codec ID : A_AC3
Duration : 2h 8mn
Bit rate mode : Constant
Bit rate : 448 Kbps
Channel(s) : 6 channels
Channel positions : Front: L C R, Side: L R, LFE
Sampling rate : 48.0 KHz
Bit depth : 16 bits
Compression mode : Lossy
Stream size : 412 MiB (5%)
Title : Original
Language : English
Default : No
Forced : No
Text #1
ID : 4
Format : UTF-8
Codec ID : S_TEXT/UTF8
Codec ID/Info : UTF-8 Plain Text
Language : Russian
Default : No
Forced : No
Text #2
ID : 5
Format : UTF-8
Codec ID : S_TEXT/UTF8
Codec ID/Info : UTF-8 Plain Text
Language : English
Default : No
Forced : No
Menu
00:00:00.000 : en:Chapter1
00:05:00.000 : en:Chapter2
00:10:00.000 : en:Chapter3
00:15:00.000 : en:Chapter4
00:20:00.000 : en:Chapter5
00:25:00.000 : en:Chapter6
00:30:00.000 : en:Chapter7
00:35:00.000 : en:Chapter8
00:40:00.000 : en:Chapter9
00:45:00.000 : en:Chapter10
00:50:00.000 : en:Chapter11
00:55:00.000 : en:Chapter12
01:00:00.000 : en:Chapter13
01:05:00.000 : en:Chapter14
01:10:00.000 : en:Chapter15
01:15:00.000 : en:Chapter16
01:20:00.000 : en:Chapter17
01:25:00.000 : en:Chapter18
01:30:00.000 : en:Chapter19
01:35:00.000 : en:Chapter20
01:40:00.000 : en:Chapter21
01:45:00.000 : en:Chapter22
01:50:00.000 : en:Chapter23
01:55:00.000 : en:Chapter24
02:00:00.000 : en:Chapter25
-Скриншоты
-
[Профиль] [ЛС]
Показать сообщения:    

Текущее время: Сегодня 04:30

Часовой пояс: GMT



Вы не можете начинать темы
Вы не можете отвечать на сообщения
Вы не можете редактировать свои сообщения
Вы не можете удалять свои сообщения
Вы не можете голосовать в опросах
Вы не можете прикреплять файлы к сообщениям
Вы не можете скачивать файлы