Крепкий орешек 2 / Die Hard 2 (1990) BDRip 1080p

 
Автор Сообщение

sergej644 ®

Пол:

Стаж: 4 года 11 месяцев

Сообщений: 6046

Откуда: Soviet Union



Награды: Нет

Торрент-статистика

Создавать темы 31-Окт-2014 18:37

[Цитировать]

--Крепкий орешек 2 / Die Hard 2 (1990)Информация о фильме
Название: Крепкий орешек 2
Оригинальное название: Die Hard 2
Год выхода: 1990
Страна: США
Выпущено: 20th Century Fox Film Corporation, Gordon Company, Silver Pictures
Жанр: Боевик, триллер, криминал
Продолжительность: 02:03:21
Перевод: Профессиональный (Дублированный)
Режиссер: Ренни Харлин
В ролях: Брюс Уиллис, Бонни Беделиа, Уильям Этертон, Реджинальд ВелДжонсон, Франко Неро, Уильям Сэдлер, Джон Эймос, Дэннис Франц, Арт Эванс, Фред Долтон Томпсон, Том Бауэр, Шила МакКарти, Дон Харви, Тони Гэниос, Питер Нельсон, Роберт Патрик, Мик Каннингэм, Джон Легуизамо, Том Верика, Джон Костелло, Вонди Куртис-Холл, Марк Бун Джуниор, Кен Болдуин, Дэнни Уизелис, Джефф Лэнгон, Грегг Кован, Дэниал Донай, Дон Чарльз МакГоверн, Боб ’Рокки’ Чели, Винсент Мацелла мл., Дэйл Джейкоби, Патрик О’Нил, Бен Лемон, Джейсон Росс-Эйзикив, Энтони Дроз, Майкл Френсис Кларк, Стив Першинг, Том Эверетт, Шерри Билсинг, Карла Тамбуррелли-О фильме: В канун Рождества группа террористов захватила международный аэропорт и теперь удерживает тысячи путешествующих в качестве заложников. Террористы - банда отступников из первоклассно вооруженных коммандос, возглавляемых одержимым жестокостью офицером. Их цель - спасти наркобарона. Банда подготовлена ко всевозможным случайностям, за исключением одной - встречи с Джоном Макклейном. Брюс Уиллис возвращается в роли супергероя-полицейского, который сражается не только с террористами, но и с некомпетентным шефом полиции аэропорта, тупоголовым начальником антитеррористического подразделения и страшным снежным бураном. Заложники мечутся, смертельно испуганные и растерянные. А Джон Макклейн ведет схватку и со временем. Его жена находится в одном из самолетов, кружащих над аэропортом. А топливо - на пределе…
-Файл
Кодек: x264
Формат: MKV
Качество: BDRip 1080p
Видео: AVC (High@L4.1) 1920x808 (2.40:1), 23.976 fps, 8134 kbps, 0.219 Bits/Pixel
Аудио 1: DD (AC-3) 5.1 ch, 448 kbps (Rus)
Аудио 2: DD (AC-3) 5.1 ch, 448 kbps (Eng)
Субтитры: Русские, Английские--

MI

General
Unique ID : 243278911944308634924328156468851113824 (0xB705D06B293F4C2DA39C912E55CDFF60)
Format : Matroska
Format version : Version 2
File size : 7.76 GiB
Duration : 2h 3mn
Overall bit rate : 9 009 Kbps
Movie name : Крепкий орешек 2 (1990) BDRip (1080p)
Encoded date : UTC 2013-02-11 14:15:55
Writing application : mkvmerge v5.8.0 ('No Sleep / Pillow') built on Sep 2 2012 15:37:04
Writing library : libebml v1.2.3 + libmatroska v1.3.0
Video
ID : 1
Format : AVC
Format/Info : Advanced Video Codec
Format profile : High@L4.1
Format settings, CABAC : Yes
Format settings, ReFrames : 5 frames
Codec ID : V_MPEG4/ISO/AVC
Duration : 2h 3mn
Bit rate : 8 134 Kbps
Width : 1 920 pixels
Height : 808 pixels
Display aspect ratio : 2.40:1
Frame rate mode : Constant
Frame rate : 23.976 fps
Color space : YUV
Chroma subsampling : 4:2:0
Bit depth : 8 bits
Scan type : Progressive
Bits/(Pixel*Frame) : 0.219
Stream size : 6.84 GiB (88%)
Title : Release by Alex260680
Writing library : x264 core 129 r2245 bc13772
Encoding settings : cabac=1 / ref=5 / deblock=1:-3:-3 / analyse=0x3:0x113 / me=umh / subme=11 / psy=1 / psy_rd=1.00:0.10 / mixed_ref=1 / me_range=32 / chroma_me=1 / trellis=2 / 8x8dct=1 / cqm=0 / deadzone=21,11 / fast_pskip=0 / chroma_qp_offset=-3 / threads=12 / lookahead_threads=2 / sliced_threads=0 / nr=0 / decimate=0 / interlaced=0 / bluray_compat=0 / constrained_intra=0 / bframes=5 / b_pyramid=2 / b_adapt=2 / b_bias=0 / direct=3 / weightb=1 / open_gop=0 / weightp=2 / keyint=240 / keyint_min=23 / scenecut=40 / intra_refresh=0 / rc=2pass / mbtree=0 / bitrate=8134 / ratetol=1.0 / qcomp=0.60 / qpmin=0 / qpmax=69 / qpstep=4 / cplxblur=20.0 / qblur=0.5 / ip_ratio=1.40 / pb_ratio=1.30 / aq=1:0.70
Language : English
Default : Yes
Forced : No
Audio #1
ID : 2
Format : AC-3
Format/Info : Audio Coding 3
Mode extension : CM (complete main)
Format settings, Endianness : Big
Codec ID : A_AC3
Duration : 2h 3mn
Bit rate mode : Constant
Bit rate : 448 Kbps
Channel(s) : 6 channels
Channel positions : Front: L C R, Side: L R, LFE
Sampling rate : 48.0 KHz
Bit depth : 16 bits
Compression mode : Lossy
Delay relative to video : 29ms
Stream size : 395 MiB (5%)
Title : DUB
Language : Russian
Default : Yes
Forced : No
Audio #2
ID : 3
Format : AC-3
Format/Info : Audio Coding 3
Mode extension : CM (complete main)
Format settings, Endianness : Big
Codec ID : A_AC3
Duration : 2h 3mn
Bit rate mode : Constant
Bit rate : 448 Kbps
Channel(s) : 6 channels
Channel positions : Front: L C R, Side: L R, LFE
Sampling rate : 48.0 KHz
Bit depth : 16 bits
Compression mode : Lossy
Stream size : 395 MiB (5%)
Title : Original
Language : English
Default : No
Forced : No
Text #1
ID : 4
Format : UTF-8
Codec ID : S_TEXT/UTF8
Codec ID/Info : UTF-8 Plain Text
Language : Russian
Default : No
Forced : No
Text #2
ID : 5
Format : UTF-8
Codec ID : S_TEXT/UTF8
Codec ID/Info : UTF-8 Plain Text
Language : English
Default : No
Forced : No
Menu
00:00:00.000 : en:Chapter1
00:06:14.582 : en:Chapter2
00:08:14.535 : en:Chapter3
00:12:15.693 : en:Chapter4
00:16:21.438 : en:Chapter5
00:18:32.694 : en:Chapter6
00:19:32.128 : en:Chapter7
00:23:22.734 : en:Chapter8
00:25:09.925 : en:Chapter9
00:27:03.246 : en:Chapter10
00:29:48.077 : en:Chapter11
00:36:46.245 : en:Chapter12
00:39:14.768 : en:Chapter13
00:40:02.775 : en:Chapter14
00:43:37.156 : en:Chapter15
00:48:58.477 : en:Chapter16
00:49:57.035 : en:Chapter17
00:52:30.730 : en:Chapter18
00:58:29.671 : en:Chapter19
01:01:43.950 : en:Chapter20
01:02:39.921 : en:Chapter21
01:04:47.383 : en:Chapter22
01:06:38.411 : en:Chapter23
01:08:12.254 : en:Chapter24
01:09:54.439 : en:Chapter25
01:10:59.755 : en:Chapter26
01:16:23.245 : en:Chapter27
01:21:56.369 : en:Chapter28
01:23:27.210 : en:Chapter29
01:25:40.885 : en:Chapter30
01:30:53.990 : en:Chapter31
01:33:17.633 : en:Chapter32
01:34:23.157 : en:Chapter33
01:41:09.688 : en:Chapter34
01:42:31.854 : en:Chapter35
01:44:53.161 : en:Chapter36
01:46:36.430 : en:Chapter37
01:49:13.255 : en:Chapter38
01:53:34.432 : en:Chapter39
01:56:08.711 : en:Chapter40

x264

x264 [info]: frame I:1309 Avg QP:16.68 size:139032
x264 [info]: frame P:42691 Avg QP:18.84 size: 67861
x264 [info]: frame B:133456 Avg QP:20.77 size: 33162
-Скриншоты
-
[Профиль] [ЛС]
Показать сообщения:    

Текущее время: Сегодня 05:20

Часовой пояс: GMT



Вы не можете начинать темы
Вы не можете отвечать на сообщения
Вы не можете редактировать свои сообщения
Вы не можете удалять свои сообщения
Вы не можете голосовать в опросах
Вы не можете прикреплять файлы к сообщениям
Вы не можете скачивать файлы