Крепкий орешек / Die Hard (1988) BDRip 1080p

 
Автор Сообщение

sergej644 ®

Пол:

Стаж: 4 года 11 месяцев

Сообщений: 6043

Откуда: Soviet Union



Награды: Нет

Торрент-статистика

Создавать темы 31-Окт-2014 18:24

[Цитировать]

--Крепкий орешек / Die Hard (1988)
Информация о фильме
Название: Крепкий орешек
Оригинальное название: Die Hard
Год выхода: 1988
Страна: США
Выпущено: 20th Century Fox Film Corporation, Gordon Company, Lawrence Gordon Productions, Silver Pictures
Жанр: Боевик, триллер, драма, криминал
Продолжительность: 02:12:08
Перевод: Профессиональный (Дублированный)
Режиссер: Джон МакТирнан
В ролях: Брюс Уиллис, Алан Рикман, Бонни Беделиа, Реджинальд ВелДжонсон, Пол Глисон, Уильям Этертон, Харт Бокнер, Джеймс Шигета, Александр Годунов, Бруно Доуон, Деворо Уайт, Андреас Висневски, Кларенс Гильярд мл., Джои Плева, Лоренцо Каччаланца, Жерар Бонн, Дэннис Хейден, Аль Леонг, Гари Робертс, Ганс Бурингер, Вильгельм фон Хомбург, Роберт Дави, Гранд Л. Буш, Билл Маркус, Рик Дукомман, Мэтт Лэндерс, Кармин Зоззора, Дастин Тейлор, Джордж Кристи, Энтони Пек, Шерил Бэйкер, Ричард Паркер, Дэвид Эрсин, Мэри Эллен Трейнор, Диана Джеймс, Шелли Погода, Сэльма Арчерд, Скот Беннетт, Ребекка Бруссар, Кейт Финлейсон-О фильме: В суперсовременном небоскребе Лос-Анджелеса полицейский Джон Макклейн ведет смертельную схватку с бандой политических террористов, взявших в заложники два десятка человек, в число которых попадает и его жена. Началось все с того, что парень приехал в город к жене, оказался на рождественском приеме, а кончилось настоящей войной…
-Файл
Кодек: x264
Формат: MKV
Качество: BDRip 1080p
Видео: AVC (High@L4.1) 1920x808 (2.40:1), 23.976 fps, 7522 kbps, 0.202 Bits/Pixel
Аудио 1: DD (AC-3) 5.1 ch, 448 kbps (Rus)
Аудио 2: DD (AC-3) 5.1 ch, 448 kbps (Eng)
Субтитры: Русские, Английские--

MI

General
Unique ID : 214228765735351443529605493230675715629 (0xA12AF5A0FF7712C3BAC28D7EDBD8662D)
Format : Matroska
Format version : Version 2
File size : 7.76 GiB
Duration : 2h 12mn
Overall bit rate : 8 391 Kbps
Movie name : Крепкий орешек (1988) BDRip (1080p)
Encoded date : UTC 2013-02-13 13:54:25
Writing application : mkvmerge v5.8.0 ('No Sleep / Pillow') built on Sep 2 2012 15:37:04
Writing library : libebml v1.2.3 + libmatroska v1.3.0
Video
ID : 1
Format : AVC
Format/Info : Advanced Video Codec
Format profile : High@L4.1
Format settings, CABAC : Yes
Format settings, ReFrames : 5 frames
Codec ID : V_MPEG4/ISO/AVC
Duration : 2h 12mn
Bit rate : 7 522 Kbps
Width : 1 920 pixels
Height : 808 pixels
Display aspect ratio : 2.40:1
Frame rate mode : Constant
Frame rate : 23.976 fps
Color space : YUV
Chroma subsampling : 4:2:0
Bit depth : 8 bits
Scan type : Progressive
Bits/(Pixel*Frame) : 0.202
Stream size : 6.78 GiB (87%)
Title : Release by Alex260680
Writing library : x264 core 129 r2245 bc13772
Encoding settings : cabac=1 / ref=5 / deblock=1:-3:-3 / analyse=0x3:0x113 / me=umh / subme=11 / psy=1 / psy_rd=1.00:0.10 / mixed_ref=1 / me_range=32 / chroma_me=1 / trellis=2 / 8x8dct=1 / cqm=0 / deadzone=21,11 / fast_pskip=0 / chroma_qp_offset=-3 / threads=12 / lookahead_threads=2 / sliced_threads=0 / nr=0 / decimate=0 / interlaced=0 / bluray_compat=0 / constrained_intra=0 / bframes=5 / b_pyramid=2 / b_adapt=2 / b_bias=0 / direct=3 / weightb=1 / open_gop=0 / weightp=2 / keyint=240 / keyint_min=23 / scenecut=40 / intra_refresh=0 / rc=2pass / mbtree=0 / bitrate=7522 / ratetol=1.0 / qcomp=0.60 / qpmin=0 / qpmax=69 / qpstep=4 / cplxblur=20.0 / qblur=0.5 / ip_ratio=1.40 / pb_ratio=1.30 / aq=1:0.80
Language : English
Default : Yes
Forced : No
Audio #1
ID : 2
Format : AC-3
Format/Info : Audio Coding 3
Mode extension : CM (complete main)
Format settings, Endianness : Big
Codec ID : A_AC3
Duration : 2h 12mn
Bit rate mode : Constant
Bit rate : 448 Kbps
Channel(s) : 6 channels
Channel positions : Front: L C R, Side: L R, LFE
Sampling rate : 48.0 KHz
Bit depth : 16 bits
Compression mode : Lossy
Delay relative to video : 27ms
Stream size : 424 MiB (5%)
Title : DUB
Language : Russian
Default : Yes
Forced : No
Audio #2
ID : 3
Format : AC-3
Format/Info : Audio Coding 3
Mode extension : CM (complete main)
Format settings, Endianness : Big
Codec ID : A_AC3
Duration : 2h 12mn
Bit rate mode : Constant
Bit rate : 448 Kbps
Channel(s) : 6 channels
Channel positions : Front: L C R, Side: L R, LFE
Sampling rate : 48.0 KHz
Bit depth : 16 bits
Compression mode : Lossy
Stream size : 424 MiB (5%)
Title : Original
Language : English
Default : No
Forced : No
Text #1
ID : 4
Format : UTF-8
Codec ID : S_TEXT/UTF8
Codec ID/Info : UTF-8 Plain Text
Language : Russian
Default : No
Forced : No
Text #2
ID : 5
Format : UTF-8
Codec ID : S_TEXT/UTF8
Codec ID/Info : UTF-8 Plain Text
Language : English
Default : No
Forced : No
Menu
00:00:00.000 : en:Chapter1
00:02:21.975 : en:Chapter2
00:03:58.363 : en:Chapter3
00:05:12.520 : en:Chapter4
00:06:10.411 : en:Chapter5
00:07:51.512 : en:Chapter6
00:11:58.718 : en:Chapter7
00:13:18.506 : en:Chapter8
00:14:03.675 : en:Chapter9
00:14:18.941 : en:Chapter10
00:16:58.893 : en:Chapter11
00:21:01.051 : en:Chapter12
00:22:42.570 : en:Chapter13
00:24:53.826 : en:Chapter14
00:26:50.900 : en:Chapter15
00:28:50.812 : en:Chapter16
00:33:25.045 : en:Chapter17
00:34:09.214 : en:Chapter18
00:35:27.000 : en:Chapter19
00:38:19.255 : en:Chapter20
00:42:34.177 : en:Chapter21
00:43:24.727 : en:Chapter22
00:45:19.007 : en:Chapter23
00:48:00.002 : en:Chapter24
00:52:39.614 : en:Chapter25
00:56:49.739 : en:Chapter26
00:57:55.806 : en:Chapter27
00:58:39.307 : en:Chapter28
01:00:50.063 : en:Chapter29
01:01:39.446 : en:Chapter30
01:04:18.979 : en:Chapter31
01:07:44.686 : en:Chapter32
01:12:58.874 : en:Chapter33
01:15:19.640 : en:Chapter34
01:19:15.334 : en:Chapter35
01:26:11.375 : en:Chapter36
01:28:50.367 : en:Chapter37
01:29:27.821 : en:Chapter38
01:30:07.527 : en:Chapter39
01:35:44.030 : en:Chapter40
01:38:58.558 : en:Chapter41
01:41:27.331 : en:Chapter42
01:45:25.194 : en:Chapter43
01:47:45.584 : en:Chapter44
01:48:11.527 : en:Chapter45
01:49:50.542 : en:Chapter46
01:51:09.997 : en:Chapter47
01:54:16.600 : en:Chapter48
01:58:23.346 : en:Chapter49
01:59:44.844 : en:Chapter50
02:02:01.189 : en:Chapter51
02:03:49.422 : en:Chapter52
02:05:13.715 : en:Chapter53
02:06:28.706 : en:Chapter54
02:07:19.632 : en:Chapter55
-Скриншоты
-
[Профиль] [ЛС]
Показать сообщения:    

Текущее время: Сегодня 02:22

Часовой пояс: GMT



Вы не можете начинать темы
Вы не можете отвечать на сообщения
Вы не можете редактировать свои сообщения
Вы не можете удалять свои сообщения
Вы не можете голосовать в опросах
Вы не можете прикреплять файлы к сообщениям
Вы не можете скачивать файлы