Крепкий орешек: Хороший день, чтобы умереть / A Good Day to Die Hard (2013) BDRip 1080p | Theatrical Cut

 
Автор Сообщение

sergej644 ®

Пол:

Стаж: 4 года 11 месяцев

Сообщений: 6036

Откуда: Soviet Union



Награды: Нет

Торрент-статистика

Создавать темы 21-Янв-2015 00:53

[Цитировать]

--Крепкий орешек: Хороший день, чтобы умереть / A Good Day to Die Hard
]i]Информация о фильме
Название: Крепкий орешек: Хороший день, чтобы умереть
Оригинальное название: A Good Day to Die Hard
Год выхода: 2013
Жанр: боевик, триллер, криминал
Режиссер: Джон Мур
В ролях: Брюс Уиллис, Джай Кортни, Себастьян Кох, Юлия Снигирь, Радивойе Буквич, Сергей Колесников, Мэри Элизабет Уинстэд, Коул Хаузер, Амори Ноласко, Роман Лукнар
О фильме:
Джон МакКлейн прибывает в Москву, чтобы вызволить из тюрьмы своего непредсказуемого сына, но холодная голова и железные мускулы вязнут в паутине российской действительности. Дело, в которое влип МакКлейн-младший, оказывается настолько «опасной трясиной», что отцу и сыну, чтобы выжить и в очередной раз спасти мир, приходится объединить свои усилия, забыв прежние, казалось бы, непреодолимые разногласия.

Выпущено: США
Студия: 20th Century Fox
Продолжительность: 01:37:39
Перевод: Дублированный + Оригинал
Файл
Кодек: x264
Качество: BDRip (источник: Blu-ray Disc)
Видео: 1920x1040 (1,85:1), 23.976 fps, 10.1 Mbps
Аудио #1: AC-3, 6 ch, 640 kbps (Rus)
Аудио #2: AC-3, 6 ch, 640 kbps (Eng)
Субтитры: Русские, Английские
Скачать: семпл

Скриншоты

MI

Общее
Уникальный идентификатор                 : 248380367682817659309312176750348127656 (0xBADC519B07C359BCAD13E0197A36CDA8)
Полное имя                               : E:A.Good.Day.To.Die.Hard.2013.BDRip.1080p.Rus.Eng.mkv
Формат                                   : Matroska
Версия формата                           : Version 4 / Version 2
Размер файла                             : 7,75 Гбайт
Продолжительность                        : 1 ч. 37 м.
Общий поток                              : 11,4 Мбит/сек
Название фильма                          : Крепкий орешек: Хороший день, чтобы умереть / A Good Day to Die Hard (2013)
Дата кодирования                         : UTC 2013-07-14 10:58:03
Программа кодирования                    : mkvmerge v6.3.0 ('You can't stop me!') built on Jun 28 2013 20:09:41
Библиотека кодирования                   : libebml v1.3.0 + libmatroska v1.4.0
Видео
Идентификатор                            : 1
Формат                                   : AVC
Формат/Информация                        : Advanced Video Codec
Профиль формата                          : High@L4.1
Параметр CABAC формата                   : Да
Параметр ReFrames формата                : 4 кадра
Идентификатор кодека                     : V_MPEG4/ISO/AVC
Продолжительность                        : 1 ч. 37 м.
Битрейт                                  : 10,1 Мбит/сек
Ширина                                   : 1920 пикселей
Высота                                   : 1040 пикселей
Соотношение сторон                       : 1,85:1
Режим частоты кадров                     : Постоянный
Частота кадров                           : 23,976 кадра/сек
Цветовое пространство                    : YUV
Субдискретизация насыщенности            : 4:2:0
Битовая глубина                          : 8 бит
Тип развёртки                            : Прогрессивная
Бит/(Пиксели*Кадры)                      : 0.211
Размер потока                            : 6,73 Гбайт (87%)
Заголовок                                : Release by N1NT3NDO
Библиотека кодирования                   : x264 core 133 r2334 a3ac64b
Настройки программы                      : cabac=1 / ref=4 / deblock=1:-3:-3 / analyse=0x3:0x133 / me=umh / subme=10 / psy=1 / psy_rd=1.00:0.00 / mixed_ref=1 / me_range=32 / chroma_me=1 / trellis=2 / 8x8dct=1 / cqm=0 / deadzone=21,11 / fast_pskip=0 / chroma_qp_offset=-2 / threads=12 / lookahead_threads=1 / sliced_threads=0 / nr=0 / decimate=0 / interlaced=0 / bluray_compat=0 / constrained_intra=0 / bframes=5 / b_pyramid=2 / b_adapt=2 / b_bias=0 / direct=3 / weightb=1 / open_gop=0 / weightp=2 / keyint=240 / keyint_min=23 / scenecut=40 / intra_refresh=0 / rc_lookahead=80 / rc=2pass / mbtree=1 / bitrate=10092 / ratetol=1.0 / qcomp=0.60 / qpmin=0 / qpmax=69 / qpstep=4 / cplxblur=20.0 / qblur=0.5 / ip_ratio=1.40 / aq=1:0.70
Язык                                     : English
Default                                  : Да
Forced                                   : Нет
Аудио #1
Идентификатор                            : 2
Формат                                   : AC-3
Формат/Информация                        : Audio Coding 3
Расширение режима                        : CM (complete main)
Параметр Endianness формата              : Big
Идентификатор кодека                     : A_AC3
Продолжительность                        : 1 ч. 37 м.
Вид битрейта                             : Постоянный
Битрейт                                  : 640 Кбит/сек
Каналы                                   : 6 каналов
Расположение каналов                     : Front: L C R, Side: L R, LFE
Частота                                  : 48,0 КГц
Битовая глубина                          : 16 бит
Метод сжатия                             : С потерями
Размер потока                            : 447 Мбайт (6%)
Заголовок                                : Rus
Язык                                     : Russian
Default                                  : Да
Forced                                   : Нет
Аудио #2
Идентификатор                            : 3
Формат                                   : AC-3
Формат/Информация                        : Audio Coding 3
Расширение режима                        : CM (complete main)
Параметр Endianness формата              : Big
Идентификатор кодека                     : A_AC3
Продолжительность                        : 1 ч. 37 м.
Вид битрейта                             : Постоянный
Битрейт                                  : 640 Кбит/сек
Каналы                                   : 6 каналов
Расположение каналов                     : Front: L C R, Side: L R, LFE
Частота                                  : 48,0 КГц
Битовая глубина                          : 16 бит
Метод сжатия                             : С потерями
Размер потока                            : 447 Мбайт (6%)
Заголовок                                : Eng
Язык                                     : English
Default                                  : Нет
Forced                                   : Нет
Текст #1
Идентификатор                            : 4
Формат                                   : UTF-8
Идентификатор кодека                     : S_TEXT/UTF8
Идентификатор кодека/Информация          : UTF-8 Plain Text
Заголовок                                : Rus
Язык                                     : Russian
Default                                  : Нет
Forced                                   : Нет
Текст #2
Идентификатор                            : 5
Формат                                   : UTF-8
Идентификатор кодека                     : S_TEXT/UTF8
Идентификатор кодека/Информация          : UTF-8 Plain Text
Заголовок                                : Eng
Язык                                     : English
Default                                  : Нет
Forced                                   : Нет
Меню
00:00:00.000                             : :Chapter 01
00:02:45.999                             : :Chapter 02
00:05:02.135                             : :Chapter 03
00:09:48.796                             : :Chapter 04
00:12:26.454                             : :Chapter 05
00:15:39.229                             : :Chapter 06
00:18:16.678                             : :Chapter 07
00:21:40.507                             : :Chapter 08
00:26:55.780                             : :Chapter 09
00:30:55.061                             : :Chapter 10
00:34:32.111                             : :Chapter 11
00:38:19.839                             : :Chapter 12
00:40:26.507                             : :Chapter 13
00:44:10.606                             : :Chapter 14
00:48:21.189                             : :Chapter 15
00:51:11.860                             : :Chapter 16
00:54:40.318                             : :Chapter 17
00:59:21.391                             : :Chapter 18
01:01:20.635                             : :Chapter 19
01:06:17.598                             : :Chapter 20
01:09:40.592                             : :Chapter 21
01:14:14.950                             : :Chapter 22
01:15:40.202                             : :Chapter 23
01:19:28.013                             : :Chapter 24
01:21:37.892                             : :Chapter 25
01:23:25.458                             : :Chapter 26
01:27:57.772                             : :Chapter 27
01:31:53.924                             : :Chapter 28
[Профиль] [ЛС]
Показать сообщения:    

Текущее время: Сегодня 14:03

Часовой пояс: GMT



Вы не можете начинать темы
Вы не можете отвечать на сообщения
Вы не можете редактировать свои сообщения
Вы не можете удалять свои сообщения
Вы не можете голосовать в опросах
Вы не можете прикреплять файлы к сообщениям
Вы не можете скачивать файлы