Крепкий орешек : Антология / Die Hard : Antology (1988-2013) BDRip-AVC | 60 fps

 
Автор Сообщение

sergej644 ®

Пол:

Стаж: 4 года 11 месяцев

Сообщений: 6035

Откуда: Soviet Union



Награды: Нет

Торрент-статистика

Создавать темы 08-Авг-2015 18:54

[Цитировать]

Крепкий орешек

-Название: Крепкий орешек
Оригинальное название: Die Hard
Год выпуска: 1988
Страна: США
Жанр: боевик, триллер
Продолжительность: 02:12:26
Перевод: Дубляж
Субтитры: русские (Полные), английские (Полные)-Режиссер: Джон МакТирнан / John McTiernan-В ролях:
Брюс Уиллис (Officer John McClane), Алан Рикман (Hans Gruber), Бонни Беделиа (Holly Gennaro McClane), Реджинальд ВелДжонсон (Sgt. Al Powell), Пол Глисон (Deputy Police Chief Dwayne T. Robinson), Уильям Этертон (Richard Thornburg), Харт Бокнер (Harry Ellis), Джеймс Шигета (Joseph Yoshinobu Takagi), Александр Годунов (Karl), Роберт Дави (FBI Special Agent Big Johnson), Гранд Л. Буш (FBI Agent Little Johnson), Бруно Доуон (Franco)-Описание:
В суперсовременном небоскребе Лос-Анджелеса полицейский Джон Макклейн ведет смертельную схватку с бандой политических террористов, взявших в заложники два десятка человек, в число которых попадает и его жена. Началось все с того, что парень приехал в город к жене, оказался на рождественском приеме, а кончилось настоящей войной...-Рейтинг

imdb.com: 8.30 (528 054)
MPAA: R - Лицам до 17 лет обязательно присутствие взрослого-Качество: BDRip-AVC 60fps
Формат: MKV
Видео кодек: AVC
Аудио кодек:AC3
Видео: AVC, 1024x432 (2.35:1), 3640 kbps, 59,940 fps, 0,137 bpp
Аудио: русский / AC3 / 5.1 / 48 kHz / 640 kbps / 16 bit |Дубляж|
Навигация по главам: есть- -

MI

General
Unique ID : 218505881595919283939080135439421096494 (0xA462B3B8D477D981BF8275927649422E)
Format : Matroska
Format version : Version 4 / Version 2
File size : 3.95 GiB
Duration : 2h 12mn
Overall bit rate : 4 272 Kbps
Movie name : Tiberiumsun69
Encoded date : UTC 2015-08-06 11:47:38
Writing application : mkvmerge v7.9.0 ('Birds') 64bit
Writing library : libebml v1.3.1 + libmatroska v1.4.2
Attachment : Yes
Video
ID : 1
Format : AVC
Format/Info : Advanced Video Codec
Format profile : High@L4.1
Format settings, CABAC : Yes
Format settings, ReFrames : 4 frames
Codec ID : V_MPEG4/ISO/AVC
Duration : 2h 12mn
Bit rate : 3 640 Kbps
Width : 1 024 pixels
Height : 432 pixels
Display aspect ratio : 2.35:1
Frame rate : 59.940 fps
Color space : YUV
Chroma subsampling : 4:2:0
Bit depth : 8 bits
Scan type : Progressive
Bits/(Pixel*Frame) : 0.137
Stream size : 3.28 GiB (83%)
Title : Tiberiumsun69
Writing library : x264 core 146 r2538 121396c
Encoding settings : cabac=1 / ref=3 / deblock=1:0:0 / analyse=0x3:0x113 / me=umh / subme=11 / psy=1 / psy_rd=1.00:0.10 / mixed_ref=1 / me_range=32 / chroma_me=1 / trellis=2 / 8x8dct=1 / cqm=0 / deadzone=21,11 / fast_pskip=0 / chroma_qp_offset=-3 / threads=12 / lookahead_threads=3 / sliced_threads=0 / nr=0 / decimate=1 / interlaced=0 / bluray_compat=0 / constrained_intra=0 / bframes=16 / b_pyramid=2 / b_adapt=2 / b_bias=0 / direct=3 / weightb=1 / open_gop=0 / weightp=2 / keyint=600 / keyint_min=59 / scenecut=40 / intra_refresh=0 / rc_lookahead=40 / rc=2pass / mbtree=0 / bitrate=3640 / ratetol=1.0 / qcomp=0.60 / qpmin=0 / qpmax=69 / qpstep=4 / cplxblur=20.0 / qblur=0.5 / vbv_maxrate=50000 / vbv_bufsize=62500 / nal_hrd=none / filler=0 / ip_ratio=1.40 / pb_ratio=1.30 / aq=1:1.00
Language : English
Default : Yes
Forced : No
Audio
ID : 2
Format : AC-3
Format/Info : Audio Coding 3
Mode extension : CM (complete main)
Codec ID : A_AC3
Duration : 2h 12mn
Bit rate mode : Constant
Bit rate : 640 Kbps
Channel(s) : 6 channels
Channel positions : Front: L C R, Side: L R, LFE
Sampling rate : 48.0 KHz
Bit depth : 16 bits
Compression mode : Lossy
Stream size : 606 MiB (15%)
Title : Дубляж
Language : Russian
Default : Yes
Forced : No
Text #1
ID : 3
Format : UTF-8
Codec ID : S_TEXT/UTF8
Codec ID/Info : UTF-8 Plain Text
Title : Полные
Language : Russian
Default : No
Forced : No
Text #2
ID : 4
Format : UTF-8
Codec ID : S_TEXT/UTF8
Codec ID/Info : UTF-8 Plain Text
Title : Полные
Language : English
Default : No
Forced : No
Menu
00:00:00.000 : en:Landing in L.a.
00:02:21.391 : en:Festival Night
00:03:57.779 : en:Mcclane Residence
00:05:11.937 : en:Argyle
00:06:09.828 : en:The Limo
00:07:50.929 : en:Nakatomi Plaza
00:11:58.134 : en:Takagi & Ellis
00:13:17.922 : en:Reunited
00:14:03.092 : en:Uninvited Guests
00:14:18.357 : en:Seperation Anxiety
00:16:58.309 : en:Hostile Takeover
00:21:00.467 : en:Disconnected Parties
00:22:41.986 : en:Party Crashers
00:24:53.242 : en:Meet Hans Gruber
00:26:50.317 : en:Industrialization and Men's Fashions
00:28:50.228 : en:Fill in the Blanks
00:33:24.461 : en:The Vault
00:34:08.630 : en:False Alarm
00:35:26.416 : en:I Promise I Won't Hurt You
00:38:18.671 : en:Ho Ho Ho
00:42:33.593 : en:Blood Lust
00:43:24.143 : en:Mayday
00:45:18.424 : en:Twinkie Patrol
00:47:59.418 : en:The Shaft
00:52:39.031 : en:Not a Creature Stirring
00:56:49.156 : en:Welcome to the Party, Pal
00:57:55.222 : en:Dick Thornburg
00:58:38.723 : en:Mr. Mystery Guest
01:00:49.479 : en:Kflw News
01:01:38.862 : en:Missing Detonators
01:04:18.396 : en:L.a.'s Finest
01:07:44.102 : en:Going In
01:12:58.290 : en:Lapd Rv
01:15:19.056 : en:Chair Bomb
01:19:14.750 : en:Contract Negotiations
01:26:10.790 : en:Issuing Demands
01:28:49.783 : en:Hostage Terrorist, Terrorist Hostage
01:29:27.237 : en:Johnson & Johnson
01:30:06.943 : en:Cat and Mouse
01:35:43.446 : en:Shoot the Glass
01:38:57.973 : en:Powell's Confession
01:41:26.747 : en:Merry Christmas From the Fbi
01:45:24.610 : en:Mcclaine's Confession
01:47:45.000 : en:Nightly News
01:48:10.943 : en:Vendetta
01:49:49.958 : en:Meeting Mrs. Mcclane
01:51:09.413 : en:Choppers Up the Ass
01:54:16.016 : en:The Roof
01:58:22.762 : en:Escape Plan Foiled
01:59:44.260 : en:Showdown
02:02:00.605 : en:Happy Trails, Hans
02:03:48.838 : en:Partner's Meet
02:05:13.130 : en:Powell's Comeback
02:06:28.122 : en:Let It Snow
02:07:19.048 : en:End Credits

Скриншоты

Крепкий орешек 2

-Название: Крепкий орешек 2
Оригинальное название: Die Hard 2
Год выпуска: 1990
Страна: США
Жанр: боевик, триллер
Продолжительность: 02:03:22
Перевод: Дубляж
Субтитры: русские (Полные), английские (Полные)-Режиссер: Ренни Харлин / Renny Harlin-В ролях:
Брюс Уиллис (Lt. John McClane), Бонни Беделиа (Holly McClane), Уильям Сэдлер (Col. Stuart), Франко Неро (Gen. Ramon Esperanza), Уильям Этертон (Richard Thornburg), Деннис Франц (Capt. Carmine Lorenzo), Джон Эймос (Maj. Grant), Арт Эванс (Leslie Barnes), Фред Долтон Томпсон (Trudeau), Реджинальд ВелДжонсон (Sgt. Al Powell), Том Бауэр (Marvin), Шила МакКарти (Samantha «Sam» Coleman)-Описание:
В канун Рождества группа террористов захватила международный аэропорт и теперь удерживает тысячи путешествующих в качестве заложников. Террористы - банда отступников из первоклассно вооруженных коммандос, возглавляемых одержимым жестокостью офицером. Их цель - спасти наркобарона.
Банда подготовлена ко всевозможным случайностям, за исключением одной - встречи с Джоном Макклейном. Брюс Уиллис возвращается в роли супергероя-полицейского, который сражается не только с террористами, но и с некомпетентным шефом полиции аэропорта, тупоголовым начальником антитеррористического подразделения и страшным снежным бураном.
Заложники мечутся, смертельно испуганные и растерянные. А Джон Макклейн ведет схватку и со временем. Его жена находится в одном из самолетов, кружащих над аэропортом. А топливо - на пределе...-Рейтинг

imdb.com: 7.10 (245 376)
MPAA: R - Лицам до 17 лет обязательно присутствие взрослого-Качество: BDRip-AVC 60fps
Формат: MKV
Видео кодек: AVC
Аудио кодек:AC3
Видео: AVC, 1024x432 (2.35:1), 3950 kbps, 59,940 fps, 0,149 bpp
Аудио: русский / AC3 / 5.1 / 48 kHz / 640 kbps / 16 bit |Дубляж|
Навигация по главам: есть- -

MI

General
Unique ID : 199521233708815101313271616375445240115 (0x961A64508CB17821B9CE725372FBB933)
Format : Matroska
Format version : Version 4 / Version 2
File size : 3.95 GiB
Duration : 2h 3mn
Overall bit rate : 4 588 Kbps
Movie name : Tiberiumsun69
Encoded date : UTC 2015-08-06 11:55:40
Writing application : mkvmerge v7.9.0 ('Birds') 64bit
Writing library : libebml v1.3.1 + libmatroska v1.4.2
Attachment : Yes
Video
ID : 1
Format : AVC
Format/Info : Advanced Video Codec
Format profile : High@L4.1
Format settings, CABAC : Yes
Format settings, ReFrames : 4 frames
Codec ID : V_MPEG4/ISO/AVC
Duration : 2h 3mn
Bit rate : 3 950 Kbps
Width : 1 024 pixels
Height : 432 pixels
Display aspect ratio : 2.35:1
Frame rate : 59.940 fps
Color space : YUV
Chroma subsampling : 4:2:0
Bit depth : 8 bits
Scan type : Progressive
Bits/(Pixel*Frame) : 0.149
Stream size : 3.32 GiB (84%)
Title : Tiberiumsun69
Writing library : x264 core 146 r2538 121396c
Encoding settings : cabac=1 / ref=3 / deblock=1:0:0 / analyse=0x3:0x113 / me=umh / subme=11 / psy=1 / psy_rd=1.00:0.10 / mixed_ref=1 / me_range=32 / chroma_me=1 / trellis=2 / 8x8dct=1 / cqm=0 / deadzone=21,11 / fast_pskip=0 / chroma_qp_offset=-3 / threads=12 / lookahead_threads=3 / sliced_threads=0 / nr=0 / decimate=1 / interlaced=0 / bluray_compat=0 / constrained_intra=0 / bframes=16 / b_pyramid=2 / b_adapt=2 / b_bias=0 / direct=3 / weightb=1 / open_gop=0 / weightp=2 / keyint=600 / keyint_min=59 / scenecut=40 / intra_refresh=0 / rc_lookahead=40 / rc=2pass / mbtree=0 / bitrate=3950 / ratetol=1.0 / qcomp=0.60 / qpmin=0 / qpmax=69 / qpstep=4 / cplxblur=20.0 / qblur=0.5 / vbv_maxrate=50000 / vbv_bufsize=62500 / nal_hrd=none / filler=0 / ip_ratio=1.40 / pb_ratio=1.30 / aq=1:1.00
Language : English
Default : Yes
Forced : No
Audio
ID : 2
Format : AC-3
Format/Info : Audio Coding 3
Mode extension : CM (complete main)
Codec ID : A_AC3
Duration : 2h 3mn
Bit rate mode : Constant
Bit rate : 640 Kbps
Channel(s) : 6 channels
Channel positions : Front: L C R, Side: L R, LFE
Sampling rate : 48.0 KHz
Bit depth : 16 bits
Compression mode : Lossy
Stream size : 565 MiB (14%)
Title : Дубляж
Language : Russian
Default : Yes
Forced : No
Text #1
ID : 3
Format : UTF-8
Codec ID : S_TEXT/UTF8
Codec ID/Info : UTF-8 Plain Text
Title : Полные
Language : Russian
Default : No
Forced : No
Text #2
ID : 4
Format : UTF-8
Codec ID : S_TEXT/UTF8
Codec ID/Info : UTF-8 Plain Text
Title : Полные
Language : English
Default : No
Forced : No
Menu
00:00:00.000 : en:Main Title: Merry Christmas!
00:06:14.583 : en:The Church of Choice
00:08:14.536 : en:At The Airport
00:12:15.693 : en:Baggage Mishandling
00:16:21.439 : en:Cabin Fever
00:18:32.695 : en:The Colonel's Headquarters
00:19:32.129 : en:A Chat With Lorenzo
00:23:22.735 : en:Esperanza Enroute
00:25:09.925 : en:Powell on The Line
00:27:03.247 : en:Traffic Control
00:29:48.078 : en:McClane Raises a Question
00:36:46.246 : en:McClane Gets Evicted
00:39:14.769 : en:Another Plan
00:40:02.775 : en:Marvin
00:43:37.156 : en:Shootout at The Skywalk
00:48:58.477 : en:Closer Than 50 Yards
00:49:57.036 : en:Paying The Penalty
00:52:30.731 : en:Learning a Lesson
00:58:29.673 : en:Aftermath
01:01:43.950 : en:Thornberg Tunes In
01:02:39.923 : en:The Anti-Terrorist Team
01:04:47.383 : en:The Outer Marker
01:06:38.411 : en:Thornberg Gets A Scoop
01:08:12.255 : en:The Right Frequency
01:09:54.440 : en:A New Position
01:10:59.755 : en:The Falcon Is Landing
01:16:23.245 : en:Emergency Exit
01:21:56.370 : en:The Old Plans
01:23:27.211 : en:The Old Church
01:25:40.886 : en:The Raid
01:30:53.990 : en:On Thin Ice
01:33:17.634 : en:The Enemy Within
01:34:23.157 : en:Thornberg Goes Live
01:41:09.689 : en:The Getaway
01:42:31.854 : en:Crash Positions
01:44:53.162 : en:Hitching A Ride
01:46:36.432 : en:Wing Walkers
01:49:13.255 : en:Landing Lights
01:53:34.433 : en:Holly!
01:56:08.712 : en:End Titles (Let It Snow)

Скриншоты

Крепкий орешек 3: Возмездие

-Название: Крепкий орешек 3: Возмездие
Оригинальное название: Die Hard: With a Vengeance
Год выпуска: 1995
Страна: США
Жанр: боевик, триллер, криминал
Продолжительность: 02:08:31
Перевод: Профессиональный многоголосый
Субтитры: русские (Полные), английские (Полные)-Режиссер: Джон МакТирнан / John McTiernan-В ролях:
Брюс Уиллис (John McClane), Сэмюэл Л. Джексон (Zeus Carver), Джереми Айронс (Simon Gruber), Ларри Бриггман (Insp. Walter Cobb), Грэм Грин (Joe Lambert), Коллин Кэмп (Connie Kowalski), Энтони Пек (Ricky Walsh), Николас Уаймэн (Mathias Targo), Сэм Филлипс (Katya), Кевин Чэмберлин (Charles Weiss), Шэрон Вашингтон (Officer Jane), Стивен Перлман (Dr. Fred Schiller)-Описание:
На улицах Нью-Йорка офицер полиции Джон МакКлейн видел все, что только возможно. На этот раз для того, чтобы отомстить МакКлейну, террорист Саймон, виртуозно устраивающий взрывы, заставляет героя - полицейского играть в смертельную игру. Ставка - город Нью-Йорк.
МакКлейн вынужден метаться по городу, следуя телефонным указаниям Саймона, готового разнести пол - Нью-Йорка за малейшее отклонение от его требований. И в то время, как вся полиция города занята поисками террористов, преступники похищают золотой запас Национального банка США.
У МакКлейна бывали неудачные деньки за годы службы в полиции, но сегодня у него, похоже, будет исключительно скверный день...-Рейтинг

imdb.com: 7.60 (275 050)
MPAA: R - Лицам до 17 лет обязательно присутствие взрослого-Качество: BDRip-AVC 60fps
Формат: MKV
Видео кодек: AVC
Аудио кодек:AC3
Видео: AVC, 1024x432 (2.35:1), 3965 kbps, 59,940 fps, 0,150 bpp
Аудио: русский / AC3 / 5.1 / 48 kHz / 448 kbps / 16 bit |Многоголосый, закадровый ОРТ|
Навигация по главам: есть- -

MI

General
Unique ID : 233683511252044832211309297636641793906 (0xAFCDCEA38B50C7899BD836561D52E772)
Format : Matroska
Format version : Version 4 / Version 2
File size : 3.96 GiB
Duration : 2h 8mn
Overall bit rate : 4 414 Kbps
Movie name : Tiberiumsun69
Encoded date : UTC 2015-08-06 12:15:30
Writing application : mkvmerge v7.9.0 ('Birds') 64bit
Writing library : libebml v1.3.1 + libmatroska v1.4.2
Attachment : Yes
Video
ID : 1
Format : AVC
Format/Info : Advanced Video Codec
Format profile : High@L4.1
Format settings, CABAC : Yes
Format settings, ReFrames : 4 frames
Codec ID : V_MPEG4/ISO/AVC
Duration : 2h 8mn
Bit rate : 3 965 Kbps
Width : 1 024 pixels
Height : 432 pixels
Display aspect ratio : 2.35:1
Frame rate : 59.940 fps
Color space : YUV
Chroma subsampling : 4:2:0
Bit depth : 8 bits
Scan type : Progressive
Bits/(Pixel*Frame) : 0.150
Stream size : 3.48 GiB (88%)
Title : Tiberiumsun69
Writing library : x264 core 146 r2538 121396c
Encoding settings : cabac=1 / ref=3 / deblock=1:0:0 / analyse=0x3:0x113 / me=umh / subme=11 / psy=1 / psy_rd=1.00:0.10 / mixed_ref=1 / me_range=32 / chroma_me=1 / trellis=2 / 8x8dct=1 / cqm=0 / deadzone=21,11 / fast_pskip=0 / chroma_qp_offset=-3 / threads=12 / lookahead_threads=3 / sliced_threads=0 / nr=0 / decimate=1 / interlaced=0 / bluray_compat=0 / constrained_intra=0 / bframes=16 / b_pyramid=2 / b_adapt=2 / b_bias=0 / direct=3 / weightb=1 / open_gop=0 / weightp=2 / keyint=600 / keyint_min=59 / scenecut=40 / intra_refresh=0 / rc_lookahead=40 / rc=2pass / mbtree=0 / bitrate=3965 / ratetol=1.0 / qcomp=0.60 / qpmin=0 / qpmax=69 / qpstep=4 / cplxblur=20.0 / qblur=0.5 / vbv_maxrate=50000 / vbv_bufsize=62500 / nal_hrd=none / filler=0 / ip_ratio=1.40 / pb_ratio=1.30 / aq=1:1.00
Language : English
Default : Yes
Forced : No
Audio
ID : 2
Format : AC-3
Format/Info : Audio Coding 3
Mode extension : CM (complete main)
Codec ID : A_AC3
Duration : 2h 8mn
Bit rate mode : Constant
Bit rate : 448 Kbps
Channel(s) : 6 channels
Channel positions : Front: L C R, Side: L R, LFE
Sampling rate : 48.0 KHz
Bit depth : 16 bits
Compression mode : Lossy
Stream size : 412 MiB (10%)
Title : Многоголосый, закадровый ОРТ
Language : Russian
Default : Yes
Forced : No
Text #1
ID : 3
Format : UTF-8
Codec ID : S_TEXT/UTF8
Codec ID/Info : UTF-8 Plain Text
Title : Полные
Language : Russian
Default : No
Forced : No
Text #2
ID : 4
Format : UTF-8
Codec ID : S_TEXT/UTF8
Codec ID/Info : UTF-8 Plain Text
Title : Полные
Language : English
Default : No
Forced : No
Menu
00:00:00.000 : en:00:00:00.000
00:00:53.845 : en:00:00:53.845
00:01:53.989 : en:00:01:53.989
00:03:50.981 : en:00:03:50.981
00:07:58.144 : en:00:07:58.144
00:09:09.466 : en:00:09:09.466
00:13:38.151 : en:00:13:38.151
00:16:53.596 : en:00:16:53.596
00:22:55.374 : en:00:22:55.374
00:27:32.526 : en:00:27:32.526
00:32:39.499 : en:00:32:39.499
00:37:31.583 : en:00:37:31.583
00:40:18.249 : en:00:40:18.249
00:43:39.033 : en:00:43:39.033
00:48:48.300 : en:00:48:48.300
00:52:04.330 : en:00:52:04.330
00:52:38.739 : en:00:52:38.739
00:56:09.825 : en:00:56:09.825
00:58:38.932 : en:00:58:38.932
01:02:57.148 : en:01:02:57.148
01:04:43.630 : en:01:04:43.630
01:07:44.811 : en:01:07:44.811
01:11:36.375 : en:01:11:36.375
01:17:05.120 : en:01:17:05.120
01:20:17.646 : en:01:20:17.646
01:21:17.498 : en:01:21:17.498
01:24:42.661 : en:01:24:42.661
01:27:43.300 : en:01:27:43.300
01:28:20.670 : en:01:28:20.670
01:31:47.711 : en:01:31:47.711
01:32:35.508 : en:01:32:35.508
01:34:18.862 : en:01:34:18.862
01:39:24.417 : en:01:39:24.417
01:40:45.248 : en:01:40:45.248
01:43:52.935 : en:01:43:52.935
01:47:53.550 : en:01:47:53.550
01:53:03.527 : en:01:53:03.527
01:55:59.452 : en:01:55:59.452
01:59:27.202 : en:01:59:27.202
02:00:27.303 : en:02:00:27.303

Скриншоты

Крепкий орешек 4.0

-Название: Крепкий орешек 4.0
Оригинальное название: Live Free or Die Hard
Год выпуска: 2007
Страна: США, Великобритания
Жанр: боевик, триллер, приключения
Продолжительность: 02:08:42
Перевод: Дубляж
Субтитры: русские (Полные), английские (Полные)-Режиссер: Лен Уайзман / Len Wiseman-В ролях:
Брюс Уиллис (John McClane), Джастин Лонг (Matthew «Matt» Farrell), Тимоти Олифант (Thomas Gabriel), Мэгги Кью (Mai Linh), Клифф Кёртис (FBI Deputy Director Miguel Bowman), Джонатан Садовский (Trey), Мэри Элизабет Уинстэд (Lucy Gennaro McClane), Кевин Смит (Frederick «Warlock» Kaludis), Эндрю Фридман (Casper), Сирил Раффаэлли (Rand), Йорго Константин (Russo), Крис Палермо (Del)-Описание:
Мир опять на краю гибели из-за новой террористической угрозы. В этот раз в «заложниках» оказывается всемирная компьютерная сеть. Правительство и спецслужбы бессильны, все готово погрузиться в хаос. Но на борьбу с нависшей над миром опасностью выходит наш старый герой Джон МакКлейн со своей неразлучной подругой «Береттой».
Он давно в отставке, но когда на карту поставлена жизнь членов его семьи, он не будет стоять в стороне и бросит вызов террористам. Однако в этот раз ему уже не справиться без молодого, но очень талантливого помощника.-Рейтинг

imdb.com: 7.20 (315 008)
MPAA: PG-13 - Детям до 13 лет просмотр не желателен-Качество: BDRip-AVC 60fps
Формат: MKV
Видео кодек: AVC
Аудио кодек:AC3
Видео: AVC, 1024x424 (2.40:1), 3770 kbps, 59,940 fps, 0,145 bpp
Аудио: русский / AC3 / 5.1 / 48 kHz / 640 kbps / 16 bit |Дубляж|
Навигация по главам: есть- -

MI

General
Unique ID : 184648763102249989565516337255690051436 (0x8AEA0EE68A5E0A83B3C43F4FDE889F6C)
Format : Matroska
Format version : Version 4 / Version 2
File size : 3.96 GiB
Duration : 2h 8mn
Overall bit rate : 4 409 Kbps
Movie name : Tiberiumsun69
Encoded date : UTC 2015-08-06 12:26:01
Writing application : mkvmerge v7.9.0 ('Birds') 64bit
Writing library : libebml v1.3.1 + libmatroska v1.4.2
Attachment : Yes
Video
ID : 1
Format : AVC
Format/Info : Advanced Video Codec
Format profile : High@L4.1
Format settings, CABAC : Yes
Format settings, ReFrames : 4 frames
Codec ID : V_MPEG4/ISO/AVC
Duration : 2h 8mn
Bit rate : 3 770 Kbps
Width : 1 024 pixels
Height : 424 pixels
Display aspect ratio : 2.40:1
Frame rate : 59.940 fps
Color space : YUV
Chroma subsampling : 4:2:0
Bit depth : 8 bits
Scan type : Progressive
Bits/(Pixel*Frame) : 0.145
Stream size : 3.31 GiB (83%)
Title : Tiberiumsun69
Writing library : x264 core 146 r2538 121396c
Encoding settings : cabac=1 / ref=3 / deblock=1:0:0 / analyse=0x3:0x113 / me=umh / subme=11 / psy=1 / psy_rd=1.00:0.10 / mixed_ref=1 / me_range=32 / chroma_me=1 / trellis=2 / 8x8dct=1 / cqm=0 / deadzone=21,11 / fast_pskip=0 / chroma_qp_offset=-3 / threads=12 / lookahead_threads=3 / sliced_threads=0 / nr=0 / decimate=1 / interlaced=0 / bluray_compat=0 / constrained_intra=0 / bframes=16 / b_pyramid=2 / b_adapt=2 / b_bias=0 / direct=3 / weightb=1 / open_gop=0 / weightp=2 / keyint=600 / keyint_min=59 / scenecut=40 / intra_refresh=0 / rc_lookahead=40 / rc=2pass / mbtree=0 / bitrate=3770 / ratetol=1.0 / qcomp=0.60 / qpmin=0 / qpmax=69 / qpstep=4 / cplxblur=20.0 / qblur=0.5 / vbv_maxrate=50000 / vbv_bufsize=62500 / nal_hrd=none / filler=0 / ip_ratio=1.40 / pb_ratio=1.30 / aq=1:1.00
Language : English
Default : Yes
Forced : No
Audio
ID : 2
Format : AC-3
Format/Info : Audio Coding 3
Mode extension : CM (complete main)
Codec ID : A_AC3
Duration : 2h 8mn
Bit rate mode : Constant
Bit rate : 640 Kbps
Channel(s) : 6 channels
Channel positions : Front: L C R, Side: L R, LFE
Sampling rate : 48.0 KHz
Bit depth : 16 bits
Compression mode : Lossy
Stream size : 589 MiB (15%)
Title : Дубляж
Language : Russian
Default : Yes
Forced : No
Text #1
ID : 3
Format : UTF-8
Codec ID : S_TEXT/UTF8
Codec ID/Info : UTF-8 Plain Text
Title : Полные
Language : Russian
Default : No
Forced : No
Text #2
ID : 4
Format : UTF-8
Codec ID : S_TEXT/UTF8
Codec ID/Info : UTF-8 Plain Text
Title : Полные
Language : English
Default : No
Forced : No
Menu
00:00:00.000 : en:Encrypted
00:03:53.149 : en:The Tunnel
00:06:18.544 : en:Problem in Tower Seven
00:07:49.135 : en:A Favor for the Feds
00:11:31.524 : en:Back From the Dead
00:15:16.081 : en:Breach (Main Titles)
00:17:57.493 : en:The Hacker
00:20:47.496 : en:Under Fire
00:25:55.887 : en:Escape
00:27:30.106 : en:A Problem in New Jersey
00:30:02.884 : en:Gabriels Gambit
00:31:27.719 : en:Another Day in Paradise
00:33:47.066 : en:Downloads
00:38:16.294 : en:Accessories to Armageddon
00:41:04.253 : en:The Video Package
00:45:42.865 : en:Stage Two
00:52:16.133 : en:The Tunnel
00:55:26.573 : en:The Eastern Hub
00:58:02.312 : en:Woodlawn
01:00:47.060 : en:The Sales Over
01:02:29.871 : en:Getting the Shaft
01:08:15.508 : en:The Power Grid
01:12:31.263 : en:"Emergency!"
01:17:01.199 : en:Aerial Assault
01:18:28.161 : en:A Little Fresh Air
01:21:30.051 : en:Fire Sale
01:25:52.063 : en:For Being a Hero
01:32:45.101 : en:Blackout
01:36:50.012 : en:Fear of Flying
01:39:47.523 : en:The Warlock
01:45:02.254 : en:Problem in Tower Seven
01:46:22.459 : en:The Killer Acrobat
01:51:21.174 : en:The Substitute Driver
01:56:38.700 : en:Engage and Destroy
01:58:12.543 : en:One Minute
02:01:44.213 : en:Yippee Ki Yay...

Скриншоты

Крепкий орешек: Хороший день, чтобы умереть (Extended Cut)

-Название: Крепкий орешек: Хороший день, чтобы умереть
Оригинальное название: A Good Day to Die Hard
Год выпуска: 2013
Страна: США
Жанр: боевик, триллер, криминал
Продолжительность: 01:41:11
Перевод: Дубляж
Субтитры: русские (Полные), английские (Полные)-Режиссер: Джон Мур / John Moore-В ролях:
Брюс Уиллис (John McClane), Джай Кортни (Jack McClane), Себастьян Кох (Komarov), Юлия Снигирь (Irina), Радивойе Буквич (Alik), Сергей Колесников (Chagarin), Мэри Элизабет Уинстэд (Lucy), Коул Хаузер (Collins), Амори Ноласко (Murphy), Роман Лукнар (Anton), Золи Ганкста (MRAP Driver), Петер Такачи (Prosecutor)-Описание:
Джон МакКлейн прибывает в Москву, чтобы вызволить из тюрьмы своего непредсказуемого сына, но холодная голова и железные мускулы вязнут в паутине российской действительности. Дело, в которое влип МакКлейн-младший, оказывается настолько «опасной трясиной», что отцу и сыну, чтобы выжить и в очередной раз спасти мир, приходится объединить свои усилия, забыв прежние, казалось бы, непреодолимые разногласия.-Рейтинг

imdb.com: 5.30 (151 646)
MPAA: R - Лицам до 17 лет обязательно присутствие взрослого-Качество: BDRip-AVC 60fps
Формат: MKV
Видео кодек: AVC
Аудио кодек:AC3
Видео: AVC, 1024x552 (1.855), 4970 kbps, 59,940 fps, 0,147 bpp
Аудио: русский / AC3 / 5.1 / 48 kHz / 640 kbps / 16 bit |Дубляж|
Навигация по главам: есть- -

MI

General
Unique ID : 220728486556668502851705913503282086981 (0xA60EC29B6917C95C8A8E830CD073C445)
Format : Matroska
Format version : Version 4 / Version 2
File size : 3.96 GiB
Duration : 1h 41mn
Overall bit rate : 5 607 Kbps
Movie name : Tiberiumsun69
Encoded date : UTC 2015-08-07 13:22:12
Writing application : mkvmerge v7.9.0 ('Birds') 64bit
Writing library : libebml v1.3.1 + libmatroska v1.4.2
Attachment : Yes
Video
ID : 1
Format : AVC
Format/Info : Advanced Video Codec
Format profile : High@L4.1
Format settings, CABAC : Yes
Format settings, ReFrames : 4 frames
Codec ID : V_MPEG4/ISO/AVC
Duration : 1h 41mn
Bit rate : 4 970 Kbps
Width : 1 024 pixels
Height : 552 pixels
Display aspect ratio : 1.855
Frame rate : 59.940 fps
Color space : YUV
Chroma subsampling : 4:2:0
Bit depth : 8 bits
Scan type : Progressive
Bits/(Pixel*Frame) : 0.147
Stream size : 3.43 GiB (87%)
Title : Tiberiumsun69
Writing library : x264 core 146 r2538 121396c
Encoding settings : cabac=1 / ref=3 / deblock=1:0:0 / analyse=0x3:0x113 / me=umh / subme=9 / psy=1 / psy_rd=1.00:0.10 / mixed_ref=1 / me_range=32 / chroma_me=1 / trellis=2 / 8x8dct=1 / cqm=0 / deadzone=21,11 / fast_pskip=0 / chroma_qp_offset=-3 / threads=12 / lookahead_threads=3 / sliced_threads=0 / nr=0 / decimate=1 / interlaced=0 / bluray_compat=0 / constrained_intra=0 / bframes=16 / b_pyramid=2 / b_adapt=2 / b_bias=0 / direct=3 / weightb=1 / open_gop=0 / weightp=2 / keyint=600 / keyint_min=59 / scenecut=40 / intra_refresh=0 / rc_lookahead=40 / rc=2pass / mbtree=0 / bitrate=4970 / ratetol=1.0 / qcomp=0.60 / qpmin=0 / qpmax=69 / qpstep=4 / cplxblur=20.0 / qblur=0.5 / vbv_maxrate=50000 / vbv_bufsize=62500 / nal_hrd=none / filler=0 / ip_ratio=1.40 / pb_ratio=1.30 / aq=1:1.00
Language : English
Default : Yes
Forced : No
Audio
ID : 2
Format : AC-3
Format/Info : Audio Coding 3
Mode extension : CM (complete main)
Codec ID : A_AC3
Duration : 1h 41mn
Bit rate mode : Constant
Bit rate : 640 Kbps
Channel(s) : 6 channels
Channel positions : Front: L C R, Side: L R, LFE
Sampling rate : 48.0 KHz
Bit depth : 16 bits
Compression mode : Lossy
Stream size : 463 MiB (11%)
Title : Дубляж
Language : Russian
Default : Yes
Forced : No
Text #1
ID : 3
Format : UTF-8
Codec ID : S_TEXT/UTF8
Codec ID/Info : UTF-8 Plain Text
Title : Полные
Language : Russian
Default : No
Forced : No
Text #2
ID : 4
Format : UTF-8
Codec ID : S_TEXT/UTF8
Codec ID/Info : UTF-8 Plain Text
Title : Полные
Language : English
Default : No
Forced : No
Menu
00:00:00.000 : en:Chapter 1
00:02:45.999 : en:Chapter 2
00:05:02.135 : en:Chapter 3
00:09:36.242 : en:Chapter 4
00:12:13.898 : en:Chapter 5
00:15:25.549 : en:Chapter 6
00:18:02.998 : en:Chapter 7
00:22:31.349 : en:Chapter 8
00:28:31.376 : en:Chapter 9
00:32:28.863 : en:Chapter 10
00:36:05.913 : en:Chapter 11
00:39:53.641 : en:Chapter 12
00:42:20.621 : en:Chapter 13
00:46:04.719 : en:Chapter 14
00:50:30.986 : en:Chapter 15
00:53:21.656 : en:Chapter 16
00:57:05.546 : en:Chapter 17
01:01:46.619 : en:Chapter 18
01:05:03.649 : en:Chapter 19
01:10:24.052 : en:Chapter 20
01:14:04.981 : en:Chapter 21
01:17:50.415 : en:Chapter 22
01:20:18.021 : en:Chapter 23
01:24:05.832 : en:Chapter 24
01:26:17.921 : en:Chapter 25
01:28:05.488 : en:Chapter 26
01:32:37.801 : en:Chapter 27
01:35:24.927 : en:Chapter 28

Скриншоты

--Релиз группы
[Профиль] [ЛС]
Показать сообщения:    

Текущее время: Сегодня 11:53

Часовой пояс: GMT



Вы не можете начинать темы
Вы не можете отвечать на сообщения
Вы не можете редактировать свои сообщения
Вы не можете удалять свои сообщения
Вы не можете голосовать в опросах
Вы не можете прикреплять файлы к сообщениям
Вы не можете скачивать файлы