Крепкие тела / Hardbodies (1984) BDRip 1080p | P

 
Автор Сообщение

Russian Mafia ®

Пол:

Стаж: 1 год 8 месяцев

Сообщений: 4256



Награды: 10 (Подробнее)

Top Releaser 2 (Количество: 1) Mega Seeder 1 (Количество: 1) Top Releaser 4 (Количество: 1)
Торрент-статистика

Создавать темы 25-Авг-2016 08:54

[Цитировать]

Название: Крепкие тела
Оригинальное название: Hardbodies
Год выхода: 1984
Страна: США
Студия: Chroma III Productions, Columbia Pictures Corporation
Продолжительность: 01:26:46
Жанр: комедия, ...
Режиссер: Марк Гриффитс
В ролях: Грант Крамер, Тил Робертс, Гари Вуд, Майкл Раппорт, Сорреллс Пиккард, Роберта Коллинз, Синди Сильвер, Кортни Гейнс, Кристи Никколи, Кристал Шоу, ...
Перевод: Профессиональный (многоголосный, закадровый) СТС
О фильме: Трое немолодых мужчин отправляются отдыхать на побережье Калифорнии. Вскоре они понимают, что хорошего отеля и кабриолета недостаточно, чтобы пользоваться успехом у девушек. Тогда друзья нанимают смазливого студента, который берется помочь им вернуть форму…

Кодек: x264
Качество: BDRip 1080p
Видео: 1920x800, 16000 kbps, 23,976 fps
Аудио #1: AC-3, 2 ch, 192 kbps (Rus) - MVO СТС
Аудио #2: AC-3, 2 ch, 448 kbps (Eng)
Субтитры: Английские, Английские (SDH)

Дополнительная информация

За исходник спасибо - pyha
В начале сделал рип с 14000 kbps. Получил вот это:
x264 [info]: frame I:640 Avg QP:24.82 size:240843
x264 [info]: frame P:24432 Avg QP:27.04 size:138248
x264 [info]: frame B:99766 Avg QP:28.94 size: 55904
x264 [info]: consecutive B-frames: 1.0% 1.3% 4.7% 21.1% 15.7% 34.9% 7.7% 5.5% 3.4% 2.6% 1.0% 0.9% 0.2%
Ну и понятно, что наращивать битрейт нет никакого смысла.

MediaInfo

x264 [info]: frame I:641 Avg QP:25.09 size:241153
x264 [info]: frame P:24397 Avg QP:27.60 size:130386
x264 [info]: frame B:99800 Avg QP:28.66 size: 70891
x264 [info]: consecutive B-frames: 1.1% 1.3% 4.5% 20.7% 15.6% 35.4% 7.8% 5.5% 3.5% 2.6% 1.0% 0.9% 0.2%
Общее
Уникальный идентификатор : 171964410186591713979654651539865345352 (0x815F240491C90BCC8CF0D69753621D48)
Полное имя : Крепкие тела 1 (Hardbodies) 1984 BDRip 1080p.mkv
Формат : Matroska
Версия формата : Version 2
Размер файла : 10,1 Гбайт
Продолжительность : 1 ч. 26 м.
Общий поток : 16,6 Мбит/сек
Дата кодирования : UTC 2016-08-25 06:22:17
Программа кодирования : mkvmerge v4.0.0 ('The Stars were mine') сборка от Jun 6 2010 16:18:42
Библиотека кодирования : libebml v1.0.0 + libmatroska v1.0.0
Видео
Идентификатор : 1
Формат : AVC
Формат/Информация : Advanced Video Codec
Профиль формата : High@L4.1
Параметр CABAC формата : Да
Параметр ReFrames формата : 4 кадра
Идентификатор кодека : V_MPEG4/ISO/AVC
Продолжительность : 1 ч. 26 м.
Битрейт : 16,0 Мбит/сек
Ширина : 1920 пикселей
Высота : 1080 пикселей
Соотношение сторон : 16:9
Режим частоты кадров : Постоянный
Частота кадров : 23,976 (24000/1001) кадра/сек
Цветовое пространство : YUV
Субдискретизация насыщенности : 4:2:0
Битовая глубина : 8 бит
Тип развёртки : Прогрессивная
Бит/(Пиксели*Кадры) : 0.322
Размер потока : 9,50 Гбайт (94%)
Библиотека кодирования : x264 core 146 r2538 121396c
Настройки программы : cabac=1 / ref=4 / deblock=1:-3:-3 / analyse=0x3:0x133 / me=umh / subme=11 / psy=1 / psy_rd=1.10:0.16 / mixed_ref=1 / me_range=32 / chroma_me=1 / trellis=2 / 8x8dct=1 / cqm=0 / deadzone=21,11 / fast_pskip=0 / chroma_qp_offset=-3 / threads=12 / lookahead_threads=2 / sliced_threads=0 / nr=0 / decimate=0 / interlaced=0 / bluray_compat=0 / constrained_intra=0 / bframes=12 / b_pyramid=2 / b_adapt=2 / b_bias=0 / direct=3 / weightb=1 / open_gop=0 / weightp=2 / keyint=240 / keyint_min=23 / scenecut=40 / intra_refresh=0 / rc_lookahead=60 / rc=2pass / mbtree=1 / bitrate=16000 / ratetol=1.0 / qcomp=0.60 / qpmin=0 / qpmax=69 / qpstep=4 / cplxblur=20.0 / qblur=0.5 / vbv_maxrate=50000 / vbv_bufsize=62500 / nal_hrd=none / filler=0 / ip_ratio=1.40 / aq=1:0.90
Язык : English
Default : Нет
Forced : Нет
Аудио #1
Идентификатор : 2
Формат : AC-3
Формат/Информация : Audio Coding 3
Расширение режима : CM (complete main)
Параметр Endianness формата : Big
Идентификатор кодека : A_AC3
Продолжительность : 1 ч. 26 м.
Вид битрейта : Постоянный
Битрейт : 192 Кбит/сек
Каналы : 2 канала
Расположение каналов : Front: L R
Частота : 48,0 КГц
Частота кадров : 31,250 кадров/сек (1536 spf)
Метод сжатия : С потерями
Размер потока : 119 Мбайт (1%)
Заголовок : MVO СТС
Язык : Russian
Default : Нет
Forced : Нет
Аудио #2
Идентификатор : 3
Формат : AC-3
Формат/Информация : Audio Coding 3
Расширение режима : CM (complete main)
Параметр Endianness формата : Big
Идентификатор кодека : A_AC3
Продолжительность : 1 ч. 26 м.
Вид битрейта : Постоянный
Битрейт : 448 Кбит/сек
Каналы : 2 канала
Расположение каналов : Front: L R
Частота : 48,0 КГц
Частота кадров : 31,250 кадров/сек (1536 spf)
Метод сжатия : С потерями
Размер потока : 278 Мбайт (3%)
Язык : English
Default : Нет
Forced : Нет
Текст #1
Идентификатор : 4
Формат : UTF-8
Идентификатор кодека : S_TEXT/UTF8
Идентификатор кодека/Информация : UTF-8 Plain Text
Язык : English
Default : Нет
Forced : Нет
Текст #2
Идентификатор : 5
Формат : UTF-8
Идентификатор кодека : S_TEXT/UTF8
Идентификатор кодека/Информация : UTF-8 Plain Text
Заголовок : SDH
Язык : English
Default : Нет
Forced : Нет

[Профиль] [ЛС]
Показать сообщения:    

Текущее время: Сегодня 20:04

Часовой пояс: GMT



Вы не можете начинать темы
Вы не можете отвечать на сообщения
Вы не можете редактировать свои сообщения
Вы не можете удалять свои сообщения
Вы не можете голосовать в опросах
Вы не можете прикреплять файлы к сообщениям
Вы не можете скачивать файлы