Крепись! / Get Hard (Этан Коэн / Etan Cohen) [2015, США, комедия, криминал, BDRip] [Расширенная версия / Unrated Cut] MVO (iTunes)

 
Автор Сообщение

TorrentFilm ®

Пол:

Стаж: 2 года

Сообщений: 7741



Награды: Нет

Торрент-статистика

Создавать темы 09-Сен-2015 00:09

[Цитировать]

Крепись! / Get Hard

«An education in incarceration»
-Страна: США
Жанр: комедия, криминал
Год выпуска: 2015
Продолжительность: 01:46:43
Перевод: Профессиональный (многоголосый закадровый) - | iTunes |
Cубтитры: нет
Оригинальная аудиодорожка: нет-Режиссер: Этан Коэн / Etan Cohen-В ролях: Уилл Феррелл (James), Кевин Харт (Darnell), Крэйг Т. Нельсон (Martin), Элисон Бри (Alissa), Эдвина Финдли (Rita), Ариана Нил (Makayla), Эрик Чаварриа (Cecelio), Ти-Ай (Russell), Пол Бен-Виктор (Gayle), Джон Майер (John Mayer), Джон Эйз (Big Mike), Нито Лариоза (Jaoa)...-Описание: Богатый менеджер инвестиционного банка осуждён за преступление, которого он не совершал, и готовится к тюрьме. А помогает ему в этом парень, который моет его машину.- -Примечание: UNRATED - расширенная версия, длиннее театральной на ~6,5 минут! Полный перевод. Расширенные сцены озвучены Яроцким! Присутствует ненормативная лексика.-Качество видео: BDRip | Get.Hard.2015.2in1.1080p.BluRay.AVC.DTS-HD.MA.5.1-HDAccess |
Формат видео: AVI
Видео: 720x400, 23.976 fps, XviD build 73 ~1570 kbps avg, 0.230 bit/pixel
Аудио: 48 kHz, AC3 Dolby Digital, 3/2 (L,C,R,l,r) + LFE ch, ~384.00 kbps
-

Дополнительно о фильме:

Производство, студия дубляжа, прокат:

MediaInfo

General
Complete name : Get Hard.By_Flash.avi
Format : AVI
Format/Info : Audio Video Interleave
File size : 1.46 GiB
Duration : 1h 46mn
Overall bit rate : 1 963 Kbps
Writing application : VirtualDubMod 1.5.10.3 | www.virtualdub-fr.org || (build 2550/release)
Writing library : VirtualDubMod build 2550/release
Video
ID : 0
Format : MPEG-4 Visual
Format profile : Advanced Simple@L5
Format settings, BVOP : 1
Format settings, QPel : No
Format settings, GMC : No warppoints
Format settings, Matrix : Custom
Codec ID : XVID
Codec ID/Hint : XviD
Duration : 1h 46mn
Bit rate : 1 570 Kbps
Width : 720 pixels
Height : 400 pixels
Display aspect ratio : 16:9
Frame rate : 23.976 fps
Color space : YUV
Chroma subsampling : 4:2:0
Bit depth : 8 bits
Scan type : Progressive
Compression mode : Lossy
Bits/(Pixel*Frame) : 0.227
Stream size : 1.17 GiB (80%)
Writing library : XviD 73
Audio
ID : 1
Format : AC-3
Format/Info : Audio Coding 3
Mode extension : CM (complete main)
Format settings, Endianness : Big
Codec ID : 2000
Duration : 1h 46mn
Bit rate mode : Constant
Bit rate : 384 Kbps
Channel(s) : 6 channels
Channel positions : Front: L C R, Side: L R, LFE
Sampling rate : 48.0 KHz
Bit depth : 16 bits
Compression mode : Lossy
Stream size : 293 MiB (20%)
Alignment : Split accross interleaves
Interleave, duration : 42 ms (1.00 video frame)
Interleave, preload duration : 500 ms

Скриншот c названием фильма

Скриншоты

[Профиль] [ЛС]
Показать сообщения:    

Текущее время: Сегодня 01:25

Часовой пояс: GMT



Вы не можете начинать темы
Вы не можете отвечать на сообщения
Вы не можете редактировать свои сообщения
Вы не можете удалять свои сообщения
Вы не можете голосовать в опросах
Вы не можете прикреплять файлы к сообщениям
Вы не можете скачивать файлы