Красотки в бегах / Hot Pursuit (Энн Флетчер / Anne Fletcher) [2015, США, боевик, комедия, криминал, HDRip] Dub

 
Автор Сообщение

TorrentFilm ®

Пол:

Стаж: 2 года

Сообщений: 7741



Награды: Нет

Торрент-статистика

Создавать темы 17-Окт-2015 10:14

[Цитировать]

Красотки в бегах / Hot Pursuit- Страна: США
Жанр: боевик, комедия, криминал
Год выпуска: 2015
Продолжительность: 01:27:31
Перевод: Профессиональный (дублированный)
Cубтитры: нет-Режиссер: Энн Флетчер / Anne Fletcher-В ролях: Риз Уизерспун, София Вергара, Мэттью Дель Негро, Майкл Мосли, Роберт Казински, Ричард Т. Джонс, Бенни Нивз, Майкл Рэй Эскамиллья, Хоакин Косио, Джон Кэрролл Линч.-Описание: Сверхдобросовестный офицер полиции Купер гордится своим назначением на, казалось бы, простое задание — сопроводить жену мафиози, Даниэллу, через весь Техас в Даллас, где она и ее муж должны дать показания против крупного наркобарона. Однако при встрече с порывистой миссис Рива — колумбийской красоткой с пышными формами, чье упрямство столь же выразительно, как и ее акцент, — ей становится ясно, что поездка будет не простой.
И прежде чем они успевают договориться о том, сколько туфель на шпильках сможет взять с собой очаровашка Даниэлла, полицейские и мистер Рива попадают под обстрел, превращая жену последнего во вдову, а предполагаемую «легкую прогулку» из Сан-Антонио в Даллас — в прятки на выживание наперегонки с пулями!-Download sample-Качество видео: HDRip (Scarabey)
Формат видео: AVI
Видео: 688x288 (2.35:1), 23.976 fps, XviD build 73 ~1053 kbps avg, 0.22 bit/pixel
Аудио: 48 kHz, MPEG Layer 3, 2 ch, ~128.00 kbps avg

Инфо

Format : AVI
Format/Info : Audio Video Interleave
File size : 745 MiB
Duration : 1h 27mn
Overall bit rate : 1 190 Kbps
Writing application : VirtualDubMod 1.5.10.2 (build 2540/release)
Writing library : VirtualDubMod build 2540/release
Video
ID : 0
Format : MPEG-4 Visual
Format profile : Advanced Simple@L5
Format settings, BVOP : Yes
Format settings, QPel : No
Format settings, GMC : No warppoints
Format settings, Matrix : Custom
Codec ID : XVID
Codec ID/Hint : XviD
Duration : 1h 27mn
Bit rate : 1 053 Kbps
Width : 688 pixels
Height : 288 pixels
Display aspect ratio : 2.35:1
Frame rate : 23.976 fps
Color space : YUV
Chroma subsampling : 4:2:0
Bit depth : 8 bits
Scan type : Progressive
Bits/(Pixel*Frame) : 0.222
Stream size : 659 MiB (88%)
Writing library : XviD 73
Audio
ID : 1
Format : MPEG Audio
Format version : Version 1
Format profile : Layer 3
Codec ID : 55
Codec ID/Hint : MP3
Duration : 1h 27mn
Bit rate mode : Constant
Bit rate : 128 Kbps
Channel(s) : 2 channels
Sampling rate : 48.0 KHz
Stream size : 80.1 MiB (11%)
Alignment : Aligned on interleaves
Interleave, duration : 42 ms (1.00 video frame)
Interleave, preload duration : 504 ms
Writing library : LAME3.99r
Encoding settings : -m s -V 4 -q 2 -lowpass 17 -b 128

Скриншоты

[Профиль] [ЛС]
Показать сообщения:    

Текущее время: Сегодня 10:33

Часовой пояс: GMT



Вы не можете начинать темы
Вы не можете отвечать на сообщения
Вы не можете редактировать свои сообщения
Вы не можете удалять свои сообщения
Вы не можете голосовать в опросах
Вы не можете прикреплять файлы к сообщениям
Вы не можете скачивать файлы