Красотки в бегах / Hot Pursuit (2015) BDRip 720p | Лицензия

 
Автор Сообщение

Russian Mafia ®

Пол:

Стаж: 1 год 8 месяцев

Сообщений: 4257



Награды: 10 (Подробнее)

Top Releaser 5 (Количество: 1) Mega Seeder 1 (Количество: 1) Mega Seeder 2 (Количество: 1)
Торрент-статистика

Создавать темы 27-Сен-2015 13:29

[Цитировать]

Красотки в бегах / Hot Pursuit (2015) BDRip 720p
от
HELLYWOOD
Информация о фильме:
Год выпуска: 2015
Страна: США
Слоган: «Вооружены и типа опасны»
Жанр: боевик, комедия, криминал
Продолжительность: 01:27:31
Перевод: Профессиональный (полное дублирование) CEE
Оригинальная звуковая дорожка
Субтитры: Русские [Full, Forced], Английские [Full, SDH, SDH-Colored] - Спасибо Elheym
Режиссёр: Энн Флетчер / Anne Fletcher
В ролях: Риз Уизерспун, София Вергара, Мэттью Дель Негро, Майкл Мосли, Роберт Казински, Ричард Т. Джонс, Бенни Нивз, Майкл Рэй Эскамиллья, Хоакин Косио, Джон Кэрролл Линч
Описание: Сверхдобросовестный офицер полиции Купер гордится своим назначением на, казалось бы, простое задание - сопроводить жену мафиози, Даниэллу, через весь Техас в Даллас, где она и ее муж должны дать показания против крупного наркобарона. Однако при встрече с порывистой миссис Рива - колумбийской красоткой с пышными формами, чье упрямство столь же выразительно, как и ее акцент, - ей становится ясно, что поездка будет не простой.
И прежде чем они успевают договориться о том, сколько туфель на шпильках сможет взять с собой очаровашка Даниэлла, полицейские и мистер Рива попадают под обстрел, превращая жену последнего во вдову, а предполагаемую «легкую прогулку» из Сан-Антонио в Даллас - в прятки на выживание наперегонки с пулями!

Файл:
Формат: MKV
Качество: BDRip 720p (Исходник: HDClub/ Blu-ray CEE/1080p)
Видео: 1280x534 at 23.976 fps, x264@L4.1, 2pass, ~6027 Kbps kbps avg
Аудио #1: 48 kHz, AC3 Dolby Digital, 3/2 (L,C,R,l,r) + LFE ch, ~640 kbps |DUB, CEE|
Аудио #2: 48 kHz, AC3 Dolby Digital, 3/2 (L,C,R,l,r) + LFE ch, ~640 kbps |ENG|
Скачать: Семпл

Знаете ли Вы, что...

Первоначально фильм носил название «Не связывайтесь с Техасом» («Don`t Mess with Texas »).
События фильма разворачиваются в Техасе, однако съемки фильма проходили в Новом Орлеане, штат Луизиана.
Чтобы вызвать службу 911 не требуется разблокировка телефона. Однако в сцене в машине, когда Даниэлла теряет телефон, она пытается подобрать кодовую комбинацию для вызова 911.
Большинство полицейских кодов произносимых в фильме на самом деле не соответствуют ситуации.
Когда Даниэлла теряет свой iPhone, во время сцены автомобильной погони, видно, что это не настоящий телефон. Когда он попадает под колеса машины, и экран отлетает от корпуса, на нем все еще видно изображение начального экрана, хотя при таких повреждениях экран должен был стать черным.

MediaInfo:

General
Unique ID : 189330321927128486478644609011281136895 (0x8E6FB1924270118D8B80155D08E58CFF)
Complete name : Krasotki.V.Begah.2015.BDRip.720p.DUAL.-HELLYWOOD.mkv
Format : Matroska
Format version : Version 4 / Version 2
File size : 4.47 GiB
Duration : 1h 27mn
Overall bit rate : 7 308 Kbps
Movie name : Hot Pursuit - http://hellywood.ru/
Encoded date : UTC 2015-09-25 16:50:08
Writing application : mkvmerge v6.9.1 ('Blue Panther') 32bit built on Apr 18 2014 18:15:44
Writing library : libebml v1.3.0 + libmatroska v1.4.1
Video
ID : 1
Format : AVC
Format/Info : Advanced Video Codec
Format profile : High@L4.1
Format settings, CABAC : Yes
Format settings, ReFrames : 12 frames
Codec ID : V_MPEG4/ISO/AVC
Duration : 1h 27mn
Bit rate : 6 027 Kbps
Width : 1 280 pixels
Height : 534 pixels
Display aspect ratio : 2.40:1
Frame rate mode : Constant
Frame rate : 23.976 fps
Color space : YUV
Chroma subsampling : 4:2:0
Bit depth : 8 bits
Scan type : Progressive
Bits/(Pixel*Frame) : 0.368
Stream size : 3.60 GiB (80%)
Title : serokuz74
Writing library : x264 core 148 r2597kMod e86f3a1
Encoding settings : cabac=1 / ref=12 / deblock=1:-3:-3 / analyse=0x3:0x133 / me=tesa / subme=11 / psy=1 / fade_compensate=0.00 / psy_rd=1.00:0.00 / mixed_ref=1 / me_range=32 / chroma_me=1 / trellis=2 / 8x8dct=1 / cqm=0 / deadzone=21,11 / fast_pskip=0 / chroma_qp_offset=-2 / threads=12 / lookahead_threads=2 / sliced_threads=0 / nr=0 / decimate=0 / interlaced=0 / bluray_compat=0 / constrained_intra=0 / fgo=0 / bframes=10 / b_pyramid=2 / b_adapt=2 / b_bias=0 / direct=3 / weightb=1 / open_gop=0 / weightp=2 / keyint=250 / keyint_min=23 / scenecut=40 / intra_refresh=0 / rc_lookahead=60 / rc=2pass / mbtree=0 / bitrate=6027 / ratetol=1.0 / qcomp=0.70 / qpmin=0 / qpmax=69 / qpstep=4 / cplxblur=20.0 / qblur=0.5 / vbv_maxrate=50000 / vbv_bufsize=62500 / nal_hrd=none / filler=0 / ip_ratio=1.20 / pb_ratio=1.10 / aq=1:0.70
Language : English
Default : Yes
Forced : No
Matrix coefficients : BT.709
Color range : Limited
Audio #1
ID : 2
Format : AC-3
Format/Info : Audio Coding 3
Mode extension : CM (complete main)
Format settings, Endianness : Big
Codec ID : A_AC3
Duration : 1h 27mn
Bit rate mode : Constant
Bit rate : 640 Kbps
Channel(s) : 6 channels
Channel positions : Front: L C R, Side: L R, LFE
Sampling rate : 48.0 KHz
Bit depth : 16 bits
Compression mode : Lossy
Stream size : 401 MiB (9%)
Title : AC3 5.1 @ 640 kbps - DUB, Blu-ray CEE
Language : Russian
Default : Yes
Forced : Yes
Audio #2
ID : 3
Format : AC-3
Format/Info : Audio Coding 3
Mode extension : CM (complete main)
Format settings, Endianness : Big
Codec ID : A_AC3
Duration : 1h 27mn
Bit rate mode : Constant
Bit rate : 640 Kbps
Channel(s) : 6 channels
Channel positions : Front: L C R, Side: L R, LFE
Sampling rate : 48.0 KHz
Bit depth : 16 bits
Compression mode : Lossy
Stream size : 401 MiB (9%)
Title : AC3 5.1 @ 640 kbps - Original
Language : English
Default : No
Forced : No
Text #1
ID : 4
Format : UTF-8
Codec ID : S_TEXT/UTF8
Codec ID/Info : UTF-8 Plain Text
Title : Forced
Language : Russian
Default : Yes
Forced : Yes
Text #2
ID : 5
Format : UTF-8
Codec ID : S_TEXT/UTF8
Codec ID/Info : UTF-8 Plain Text
Title : Full
Language : Russian
Default : No
Forced : No
Text #3
ID : 6
Format : UTF-8
Codec ID : S_TEXT/UTF8
Codec ID/Info : UTF-8 Plain Text
Title : Full
Language : English
Default : No
Forced : No
Text #4
ID : 7
Format : UTF-8
Codec ID : S_TEXT/UTF8
Codec ID/Info : UTF-8 Plain Text
Title : Full - SDH
Language : English
Default : No
Forced : No
Text #5
ID : 8
Format : UTF-8
Codec ID : S_TEXT/UTF8
Codec ID/Info : UTF-8 Plain Text
Title : Full - SDH, Colored
Language : English
Default : No
Forced : No
Menu
00:00:00.000 : en:Chapter 1
00:10:39.347 : en:Chapter 2
00:19:56.779 : en:Chapter 3
00:29:43.699 : en:Chapter 4
00:40:24.672 : en:Chapter 5
00:50:18.557 : en:Chapter 6
00:59:32.235 : en:Chapter 7
01:10:17.713 : en:Chapter 8
01:22:43.917 : en:Chapter 9

x264 log:

x264 [info]: frame I:1315 Avg QP:15.05 size:109256
x264 [info]: frame P:28422 Avg QP:16.44 size: 48272
x264 [info]: frame B:96168 Avg QP:17.02 size: 25363
x264 [info]: consecutive B-frames: 2.2% 4.7% 6.8% 27.5% 16.9% 31.0% 5.4% 4.1% 0.8% 0.3% 0.4%
x264 [info]: mb I I16..4: 3.7% 81.6% 14.7%
x264 [info]: mb P I16..4: 0.5% 13.4% 1.1% P16..4: 25.0% 32.2% 19.1% 3.9% 0.3% skip: 4.6%
x264 [info]: mb B I16..4: 0.0% 2.3% 0.1% B16..8: 33.3% 28.3% 9.0% direct: 8.6% skip:18.4% L0:42.3% L1:42.2% BI:15.6%
x264 [info]: 8x8 transform intra:89.1% inter:54.1%
x264 [info]: direct mvs spatial:97.7% temporal:2.3%
x264 [info]: coded y,uvDC,uvAC intra: 95.5% 93.9% 85.6% inter: 46.2% 36.0% 18.2%
x264 [info]: i16 v,h,dc,p: 53% 9% 4% 33%
x264 [info]: i8 v,h,dc,ddl,ddr,vr,hd,vl,hu: 13% 7% 9% 9% 13% 13% 12% 12% 12%
x264 [info]: i4 v,h,dc,ddl,ddr,vr,hd,vl,hu: 16% 7% 4% 9% 15% 15% 12% 11% 11%
x264 [info]: i8c dc,h,v,p: 47% 18% 18% 17%
x264 [info]: Weighted P-Frames: Y:2.3% UV:1.1%
x264 [info]: ref P L0: 46.0% 10.1% 18.8% 6.1% 5.4% 3.4% 3.3% 1.6% 1.6% 1.2% 1.3% 1.1% 0.1% 0.0%
x264 [info]: ref B L0: 74.1% 11.9% 5.0% 2.7% 1.8% 1.5% 1.1% 0.7% 0.6% 0.3% 0.1%
x264 [info]: ref B L1: 93.6% 6.4%
Скриншоты:

[Профиль] [ЛС]
Показать сообщения:    

Текущее время: Сегодня 04:27

Часовой пояс: GMT



Вы не можете начинать темы
Вы не можете отвечать на сообщения
Вы не можете редактировать свои сообщения
Вы не можете удалять свои сообщения
Вы не можете голосовать в опросах
Вы не можете прикреплять файлы к сообщениям
Вы не можете скачивать файлы