Красотки в бегах / Hot Pursuit (2015) BDRip 720p | Лицензия

 
Автор Сообщение

Russian Mafia ®

Пол:

Стаж: 1 год 8 месяцев

Сообщений: 4255



Награды: 10 (Подробнее)

Mega Seeder 2 (Количество: 1) За внесенный вклад в развитие сайта (Количество: 1) Mega Seeder 3 (Количество: 1)
Торрент-статистика

Создавать темы 10-Сен-2015 06:36

[Цитировать]

Информация о фильме
Название: Красотки в бегах
Оригинальное название: Hot Pursuit
Год выпуска: 2015
Жанр: Боевик, комедия
Выпущено: США, Warner Bros. Pictures, New Line Cinema, Metro-Goldwyn-Mayer (MGM), Pacific Standard
Режиссер: Энн Флетчер
В ролях: Риз Уизерспун, София Вергара, Мэттью Дель Негро, Майкл Мосли, Роберт Казински, Ричард Т. Джонс, Бенни Нивз, Майкл Рэй Эскамиллья, Хоакин Косио, Джон Кэрролл Линч, Джим Гэффиган, Майк Бирбиглия, Винсент Лареска, Дэвид Дженсен, Эвалуна Монтанер, Маркус Лайл Браун, Маноло Гонзалес-Вергара, Ким Коллинз, Хэрлон Миллер, Норвуд Никондра
О фильме: Добросовестный коп Роуз Купер, дочка шерифа из Сан-Розарио, прилежно служит в архиве департамента и мечтает об опасном спецзадании. Мечты героини сбываются, когда начальство вынужденно доверяет ей охрану важной свидетельницы – жены техасского криминального авторитета. Филипе Риве согласился сдать влиятельного наркобарона, поэтому вместе с супругой Даниэлой теперь охраняется полицией. Офицер Купер клянется выполнить поручение и сопроводить мексиканскую красотку в Даллас, однако подручные наркомафии вносят в полицейские планы свои коррективы. Перед самой поездкой нанятые киллеры убивают Филипе Риве и его охранника, агента ФБР. Выбравшись из-под обстрела, отважная леди-коп решает не отменять опасную командировку и доставить взбалмошную Даниэлу по месту назначения. Вскоре выясняется, что хрупким женщинам угрожают не только разозленные мафиози, но и коррумпированные коллеги Роуз.
Файл
Качество: BDRip (720p)
Видео: MPEG-4 AVC, 5036 Кбит/с, 1280x534
Аудио: Русский (AC3, 6 ch, 640 Кбит/с), украинский (AC3, 6 ch, 192 Кбит/с), английский (DTS, 6 ch, 1510 Кбит/с), (AC3, 6 ch, 192 Кбит/с)
Размер: 4.71 ГБ
Продолжительность: 01:27:31
Перевод: Дублированный [лицензия]
Субтитры: Русские, английские, украинские

MI

Общее
Уникальный идентификатор : 180349936960461938739248607630749774024 (0x87AE22686F56D52495AC1B9D8836B0C8)
Полное имя : G:Hot.Pursuit.2015.BDRip.720p.BLUEBIRD.mkv
Формат : Matroska
Версия формата : Version 2
Размер файла : 4,71 Гбайт
Продолжительность : 1 ч. 27 м.
Общий поток : 7707 Кбит/сек
Дата кодирования : UTC 2015-09-09 19:09:37
Программа кодирования : mkvmerge v7.9.0 ('Birds') 64bit
Библиотека кодирования : libebml v1.3.1 + libmatroska v1.4.2
Видео
Идентификатор : 1
Формат : AVC
Формат/Информация : Advanced Video Codec
Профиль формата : High@L4.1
Параметр CABAC формата : Да
Параметр ReFrames формата : 12 кадров
Идентификатор кодека : V_MPEG4/ISO/AVC
Продолжительность : 1 ч. 27 м.
Битрейт : 5021 Кбит/сек
Ширина : 1280 пикселей
Высота : 534 пикселя
Соотношение сторон : 2,40:1
Режим частоты кадров : Постоянный
Частота кадров : 23,976 кадра/сек
Цветовое пространство : YUV
Субдискретизация насыщенности : 4:2:0
Битовая глубина : 8 бит
Тип развёртки : Прогрессивная
Бит/(Пиксели*Кадры) : 0.306
Размер потока : 3,07 Гбайт (65%)
Библиотека кодирования : x264 core 148 r2579 73ae2d1
Настройки программы : cabac=1 / ref=12 / deblock=1:-3:-3 / analyse=0x3:0x133 / me=umh / subme=10 / psy=1 / psy_rd=1.00:0.00 / mixed_ref=1 / me_range=32 / chroma_me=1 / trellis=2 / 8x8dct=1 / cqm=0 / deadzone=21,11 / fast_pskip=0 / chroma_qp_offset=-2 / threads=6 / lookahead_threads=1 / sliced_threads=0 / nr=0 / decimate=0 / interlaced=0 / bluray_compat=0 / constrained_intra=0 / bframes=8 / b_pyramid=2 / b_adapt=2 / b_bias=0 / direct=3 / weightb=1 / open_gop=0 / weightp=2 / keyint=250 / keyint_min=24 / scenecut=40 / intra_refresh=0 / rc_lookahead=60 / rc=crf / mbtree=0 / crf=16.7 / qcomp=0.67 / qpmin=0 / qpmax=69 / qpstep=4 / vbv_maxrate=62500 / vbv_bufsize=78125 / crf_max=0.0 / nal_hrd=none / filler=0 / ip_ratio=1.25 / pb_ratio=1.18 / aq=3:0.63 / zones=0,883,crf=15.8/26177,26614,crf=16.0/58288,72455,crf=16.1/122732,125904,crf=17.8
Язык : English
Default : Да
Forced : Нет
Аудио #1
Идентификатор : 2
Формат : AC-3
Формат/Информация : Audio Coding 3
Расширение режима : CM (complete main)
Параметр Endianness формата : Big
Идентификатор кодека : A_AC3
Продолжительность : 1 ч. 27 м.
Вид битрейта : Постоянный
Битрейт : 640 Кбит/сек
Каналы : 6 каналов
Расположение каналов : Front: L C R, Side: L R, LFE
Частота : 48,0 КГц
Метод сжатия : С потерями
Размер потока : 401 Мбайт (8%)
Заголовок : DUB, EUR
Язык : Russian
Default : Да
Forced : Нет
Аудио #2
Идентификатор : 3
Формат : AC-3
Формат/Информация : Audio Coding 3
Расширение режима : CM (complete main)
Параметр Endianness формата : Big
Идентификатор кодека : A_AC3
Продолжительность : 1 ч. 27 м.
Вид битрейта : Постоянный
Битрейт : 192 Кбит/сек
Каналы : 2 канала
Расположение каналов : Front: L R
Частота : 48,0 КГц
Метод сжатия : С потерями
Размер потока : 120 Мбайт (2%)
Заголовок : DUB, iTunes
Язык : Ukrainian
Default : Нет
Forced : Нет
Аудио #3
Идентификатор : 4
Формат : DTS
Формат/Информация : Digital Theater Systems
Режим : 16
Параметр Endianness формата : Big
Идентификатор кодека : A_DTS
Продолжительность : 1 ч. 27 м.
Вид битрейта : Постоянный
Битрейт : 1509 Кбит/сек
Каналы : 6 каналов
Расположение каналов : Front: L C R, Side: L R, LFE
Частота : 48,0 КГц
Битовая глубина : 16 бит
Метод сжатия : С потерями
Размер потока : 945 Мбайт (20%)
Заголовок : English
Язык : English
Default : Нет
Forced : Нет
Аудио #4
Идентификатор : 5
Формат : AC-3
Формат/Информация : Audio Coding 3
Расширение режима : CM (complete main)
Параметр Endianness формата : Big
Идентификатор кодека : A_AC3
Продолжительность : 1 ч. 27 м.
Вид битрейта : Постоянный
Битрейт : 192 Кбит/сек
Каналы : 2 канала
Расположение каналов : Front: L R
Частота : 48,0 КГц
Метод сжатия : С потерями
Размер потока : 120 Мбайт (2%)
Заголовок : Deive
Язык : English
Default : Нет
Forced : Нет
Текст #1
Идентификатор : 6
Формат : UTF-8
Идентификатор кодека : S_TEXT/UTF8
Идентификатор кодека/Информация : UTF-8 Plain Text
Заголовок : Forced
Язык : Russian
Default : Да
Forced : Нет
Текст #2
Идентификатор : 7
Формат : UTF-8
Идентификатор кодека : S_TEXT/UTF8
Идентификатор кодека/Информация : UTF-8 Plain Text
Заголовок : Full
Язык : Russian
Default : Нет
Forced : Нет
Текст #3
Идентификатор : 8
Формат : UTF-8
Идентификатор кодека : S_TEXT/UTF8
Идентификатор кодека/Информация : UTF-8 Plain Text
Заголовок : Forced
Язык : Ukrainian
Default : Нет
Forced : Нет
Текст #4
Идентификатор : 9
Формат : UTF-8
Идентификатор кодека : S_TEXT/UTF8
Идентификатор кодека/Информация : UTF-8 Plain Text
Заголовок : Full
Язык : Ukrainian
Default : Нет
Forced : Нет
Текст #5
Идентификатор : 10
Формат : UTF-8
Идентификатор кодека : S_TEXT/UTF8
Идентификатор кодека/Информация : UTF-8 Plain Text
Заголовок : SDH
Язык : English
Default : Нет
Forced : Нет
Меню
00:00:00.000 : en:00:00:00.000
00:10:39.347 : en:00:10:39.347
00:19:56.779 : en:00:19:56.779
00:29:43.699 : en:00:29:43.699
00:40:24.672 : en:00:40:24.672
00:50:18.557 : en:00:50:18.557
00:59:32.235 : en:00:59:32.235
01:10:17.713 : en:01:10:17.713
01:22:43.917 : en:01:22:43.917

Скриншоты


[Профиль] [ЛС]
Показать сообщения:    

Текущее время: Сегодня 18:13

Часовой пояс: GMT



Вы не можете начинать темы
Вы не можете отвечать на сообщения
Вы не можете редактировать свои сообщения
Вы не можете удалять свои сообщения
Вы не можете голосовать в опросах
Вы не можете прикреплять файлы к сообщениям
Вы не можете скачивать файлы