Красотки в бегах / Hot Pursuit (2015) BDRip-AVC | iTunes

 
Автор Сообщение

Russian Mafia ®

Пол:

Стаж: 1 год 8 месяцев

Сообщений: 4257



Награды: 10 (Подробнее)

Top Releaser 4 (Количество: 1) Mega Seeder 3 (Количество: 1) Mega Seeder 1 (Количество: 1)
Торрент-статистика

Создавать темы 26-Авг-2015 07:32

[Цитировать]

Информация о фильме
Название: Красотки в бегах
Оригинальное название: Hot Pursuit
Год выхода: 2015
Жанр: боевик, комедия
Режиссер: Энн Флетчер
В ролях: Риз Уизерспун, София Вергара, Мэттью Дель Негро, Майкл Мосли, Роберт Казински, Ричард Т. Джонс, Бенни Нивз, Майкл Рэй Эскамиллья, Хоакин Косио, Джон Кэрролл Линч
О фильме: История об офицере полиции и заключенной, которые волей судьбы оказываются в бегах в Техасе.


Выпущено: США / Warner Bros. Pictures, New Line Cinema, Metro-Goldwyn-Mayer (MGM), Pacific Standard
Продолжительность: 01:27:31
Озвучивание: Дублированное [iTunes]
Файл
Формат: MKV
Качество: BDRip-AVC
Видео: MPEG-4 AVC, 2100 Кбит/с, 1024x428
Аудио: AC3, 6 ch, 383 Кбит/с
Размер: 1.55 ГБ
Субтитры: Английские
Скачать: Сэмпл---

Media Info

General
Unique ID : 233261917437896480647759266152655836940 (0xAF7C9C757F94FA8B8822FE1D48C3570C)
Complete name : D:utorrentHot.Pursuit.2015.D.AVC.BluRay.x264.FreeRutor.mkv
Format : Matroska
Format version : Version 4 / Version 2
File size : 1.55 GiB
Duration : 1h 27mn
Overall bit rate : 2 543 Kbps
Encoded date : UTC 2015-07-28 03:58:39
Writing application : mkvmerge v8.1.0 ('Psychedelic Postcard') 32bit
Writing library : Lavf56.22.100
DURATION : 01:27:29.760000000
NUMBER_OF_FRAMES : 164055
NUMBER_OF_BYTES : 251988480
_STATISTICS_WRITING_APP : mkvmerge v8.1.0 ('Psychedelic Postcard') 32bit
_STATISTICS_WRITING_DATE_UT : 2015-08-25 14:58:13
_STATISTICS_TAGS : BPS DURATION NUMBER_OF_FRAMES NUMBER_OF_BYTES
Video
ID : 1
Format : AVC
Format/Info : Advanced Video Codec
Format profile : High@L4.1
Format settings, CABAC : Yes
Format settings, ReFrames : 6 frames
Codec ID : V_MPEG4/ISO/AVC
Duration : 1h 27mn
Bit rate : 2 150 Kbps
Width : 1 024 pixels
Height : 428 pixels
Display aspect ratio : 2.40:1
Frame rate mode : Constant
Frame rate : 23.976 fps
Standard : Component
Color space : YUV
Chroma subsampling : 4:2:0
Bit depth : 8 bits
Scan type : Progressive
Bits/(Pixel*Frame) : 0.205
Stream size : 1.29 GiB (83%)
Writing library : x264 core 144 r2525
Encoding settings : cabac=1 / ref=6 / deblock=1:0:0 / analyse=0x3:0x102 / me=umh / subme=7 / psy=1 / psy_rd=0.10:2.00 / mixed_ref=0 / me_range=15 / chroma_me=1 / trellis=2 / 8x8dct=1 / cqm=0 / deadzone=10,10 / fast_pskip=1 / chroma_qp_offset=-3 / threads=6 / lookahead_threads=1 / sliced_threads=0 / nr=0 / decimate=1 / interlaced=0 / bluray_compat=0 / constrained_intra=0 / bframes=3 / b_pyramid=2 / b_adapt=2 / b_bias=3 / direct=3 / weightb=1 / open_gop=0 / weightp=2 / keyint=239 / keyint_min=23 / scenecut=25 / intra_refresh=0 / rc=2pass / mbtree=0 / bitrate=2150 / ratetol=1.0 / qcomp=1.00 / qpmin=11 / qpmax=52 / qpstep=7 / cplxblur=20.0 / qblur=0.5 / ip_ratio=1.10 / pb_ratio=1.30 / aq=1:1.20
Default : Yes
Forced : No
Color range : Limited
DURATION : 01:27:31.213000000
NUMBER_OF_FRAMES : 125903
NUMBER_OF_BYTES : 1410550525
_STATISTICS_WRITING_APP : mkvmerge v8.1.0 ('Psychedelic Postcard') 32bit
_STATISTICS_WRITING_DATE_UT : 2015-08-25 14:58:13
_STATISTICS_TAGS : BPS DURATION NUMBER_OF_FRAMES NUMBER_OF_BYTES
Audio
ID : 3
Format : AC-3
Format/Info : Audio Coding 3
Mode extension : CM (complete main)
Format settings, Endianness : Big
Codec ID : A_AC3
Duration : 1h 27mn
Bit rate mode : Constant
Bit rate : 384 Kbps
Channel(s) : 6 channels
Channel positions : Front: L C R, Side: L R, LFE
Sampling rate : 48.0 KHz
Compression mode : Lossy
Delay relative to video : -83ms
Stream size : 240 MiB (15%)
Language : Russian
Default : Yes
Forced : No
Text
ID : 2
Format : VobSub
Muxing mode : zlib
Codec ID : S_VOBSUB
Codec ID/Info : Picture based subtitle format used on DVDs
Language : English
Default : No
Forced : No
Menu
00:00:00.000 : en:00:00:00.000
00:10:39.347 : en:00:10:39.347
00:19:56.779 : en:00:19:56.779
00:29:43.699 : en:00:29:43.699
00:40:24.672 : en:00:40:24.672
00:50:18.557 : en:00:50:18.557
00:59:32.235 : en:00:59:32.235
01:10:17.713 : en:01:10:17.713
01:22:43.917 : en:01:22:43.917
--- --- -

Скриншоты

-
[Профиль] [ЛС]
Показать сообщения:    

Текущее время: Сегодня 14:20

Часовой пояс: GMT



Вы не можете начинать темы
Вы не можете отвечать на сообщения
Вы не можете редактировать свои сообщения
Вы не можете удалять свои сообщения
Вы не можете голосовать в опросах
Вы не можете прикреплять файлы к сообщениям
Вы не можете скачивать файлы