Красотки в бегах / Hot Pursuit (2015) BDRip 720p | iTunes

 
Автор Сообщение

достали все ®

Пол:

Стаж: 1 год 8 месяцев

Сообщений: 6545



Награды: 12 (Подробнее)

За внесенный вклад в развитие сайта (Количество: 1) Mega Seeder 5 (Количество: 1) Mega Seeder 2 (Количество: 1)
Торрент-статистика

Создавать темы 26-Авг-2015 07:05

[Цитировать]

Информация о фильме
Название: Красотки в бегах
Оригинальное название: Hot Pursuit
Год выхода: 2015
Жанр: боевик, комедия
Режиссер: Энн Флетчер
В ролях: Риз Уизерспун, София Вергара, Мэттью Дель Негро, Майкл Мосли, Роберт Казински, Ричард Т. Джонс, Бенни Нивз, Майкл Рэй Эскамиллья, Хоакин Косио, Джон Кэрролл Линч
О фильме: История об офицере полиции и заключенной, которые волей судьбы оказываются в бегах в Техасе.


Выпущено: США / Warner Bros. Pictures, New Line Cinema, Metro-Goldwyn-Mayer (MGM), Pacific Standard
Продолжительность: 01:27:31
Озвучивание: Дублированное [iTunes]
Файл
Формат: MKV
Качество: BDRip 720p
Видео: MPEG-4 AVC, 5036 Кбит/с, 1280x534
Аудио: Русский (AC3, 6 ch, 384 Кбит/с), английский (DTS, 6 ch, 1510 Кбит/с)
Размер: 4.32 ГБ
Субтитры: Английские---

Media Info

Общее
Уникальный идентификатор : 224585891247062331377454035943005080745 (0xA8F5AB578120ACFBBD3B6F28CB37CCA9)
Полное имя : D:загрузкиHot.Pursuit.2015.REPACK.720p.BluRay.DD5.1.x264-CRiME.mkv
Формат : Matroska
Версия формата : Version 4 / Version 2
Размер файла : 4,32 Гбайт
Продолжительность : 1 ч. 27 м.
Общий поток : 7066 Кбит/сек
Название фильма : Красотки.в.бегах.2015.BDRip.b1080p
Дата кодирования : UTC 2015-08-25 15:06:04
Программа кодирования : mkvmerge v7.3.0 ('Nouages') 32bit built on Oct 22 2014 18:44:01
Библиотека кодирования : libebml v1.3.0 + libmatroska v1.4.1
DURATION : 01:27:31.296000000
NUMBER_OF_FRAMES : 492309
NUMBER_OF_BYTES : 990526460
_STATISTICS_WRITING_APP : mkvmerge v7.3.0 ('Nouages') 32bit built on Oct 22 2014 18:44:01
_STATISTICS_WRITING_DATE_UTC : 2015-08-25 15:06:04
_STATISTICS_TAGS : BPS DURATION NUMBER_OF_FRAMES NUMBER_OF_BYTES
Видео
Идентификатор : 1
Формат : AVC
Формат/Информация : Advanced Video Codec
Профиль формата : High@L4.1
Параметр CABAC формата : Да
Параметр ReFrames формата : 12 кадров
Идентификатор кодека : V_MPEG4/ISO/AVC
Продолжительность : 1 ч. 27 м.
Битрейт : 5033 Кбит/сек
Ширина : 1280 пикселей
Высота : 534 пикселя
Соотношение сторон : 2,40:1
Режим частоты кадров : Постоянный
Частота кадров : 23,976 кадра/сек
Цветовое пространство : YUV
Субдискретизация насыщенности : 4:2:0
Битовая глубина : 8 бит
Тип развёртки : Прогрессивная
Бит/(Пиксели*Кадры) : 0.307
Размер потока : 3,08 Гбайт (71%)
Заголовок : ENCODE CRiME
Библиотека кодирования : x264 core 148 r2579 73ae2d1
Настройки программы : cabac=1 / ref=12 / deblock=1:-3:-3 / analyse=0x3:0x133 / me=umh / subme=10 / psy=1 / psy_rd=1.00:0.00 / mixed_ref=1 / me_range=32 / chroma_me=1 / trellis=2 / 8x8dct=1 / cqm=0 / deadzone=21,11 / fast_pskip=0 / chroma_qp_offset=-2 / threads=6 / lookahead_threads=1 / sliced_threads=0 / nr=0 / decimate=0 / interlaced=0 / bluray_compat=0 / constrained_intra=0 / bframes=8 / b_pyramid=2 / b_adapt=2 / b_bias=0 / direct=3 / weightb=1 / open_gop=0 / weightp=2 / keyint=250 / keyint_min=24 / scenecut=40 / intra_refresh=0 / rc_lookahead=60 / rc=crf / mbtree=0 / crf=16.7 / qcomp=0.67 / qpmin=0 / qpmax=69 / qpstep=4 / vbv_maxrate=62500 / vbv_bufsize=78125 / crf_max=0.0 / nal_hrd=none / filler=0 / ip_ratio=1.25 / pb_ratio=1.18 / aq=3:0.63 / zones=0,883,crf=15.8/26177,26614,crf=16.0/58288,72455,crf=16.1/122732,125904,crf=17.8
Язык : English
Default : Да
Forced : Нет
DURATION : 01:27:31.288000000
NUMBER_OF_FRAMES : 125905
NUMBER_OF_BYTES : 3393971383
_STATISTICS_WRITING_APP : mkvmerge v7.3.0 ('Nouages') 32bit built on Oct 22 2014 18:44:01
_STATISTICS_WRITING_DATE_UTC : 2015-08-25 15:06:04
_STATISTICS_TAGS : BPS DURATION NUMBER_OF_FRAMES NUMBER_OF_BYTES
Аудио #1
Идентификатор : 3
Формат : AC-3
Формат/Информация : Audio Coding 3
Расширение режима : CM (complete main)
Параметр Endianness формата : Big
Идентификатор кодека : A_AC3
Продолжительность : 1 ч. 27 м.
Вид битрейта : Постоянный
Битрейт : 384 Кбит/сек
Каналы : 6 каналов
Расположение каналов : Front: L C R, Side: L R, LFE
Частота : 48,0 КГц
Битовая глубина : 16 бит
Метод сжатия : С потерями
Размер потока : 240 Мбайт (5%)
Язык : Russian
Default : Да
Forced : Нет
Аудио #2
Идентификатор : 4
Формат : DTS
Формат/Информация : Digital Theater Systems
Режим : 16
Параметр Endianness формата : Big
Идентификатор кодека : A_DTS
Продолжительность : 1 ч. 27 м.
Вид битрейта : Постоянный
Битрейт : 1509 Кбит/сек
Каналы : 6 каналов
Расположение каналов : Front: L C R, Side: L R, LFE
Частота : 48,0 КГц
Битовая глубина : 16 бит
Метод сжатия : С потерями
Размер потока : 945 Мбайт (21%)
Язык : English
Default : Нет
Forced : Нет
Текст
Идентификатор : 2
Формат : UTF-8
Идентификатор кодека : S_TEXT/UTF8
Идентификатор кодека/Информация : UTF-8 Plain Text
Заголовок : SDH
Язык : English
Default : Нет
Forced : Нет
Меню
00:00:00.000 : en:00:00:00.000
00:10:39.347 : en:00:10:39.347
00:19:56.779 : en:00:19:56.779
00:29:43.699 : en:00:29:43.699
00:40:24.672 : en:00:40:24.672
00:50:18.557 : en:00:50:18.557
00:59:32.235 : en:00:59:32.235
01:10:17.713 : en:01:10:17.713
01:22:43.917 : en:01:22:43.917
--- --- -

Скриншоты

-
[Профиль] [ЛС]
Показать сообщения:    

Текущее время: Сегодня 02:44

Часовой пояс: GMT



Вы не можете начинать темы
Вы не можете отвечать на сообщения
Вы не можете редактировать свои сообщения
Вы не можете удалять свои сообщения
Вы не можете голосовать в опросах
Вы не можете прикреплять файлы к сообщениям
Вы не можете скачивать файлы