Красотка (Дмитрий Петрунь) [2012, Россия, мелодрама, HDTV 1080i]

 
Автор Сообщение

TorrentFilm ®

Пол:

Стаж: 2 года 9 месяцев

Сообщений: 7763



Награды: Нет

Торрент-статистика

Создавать темы 03-Янв-2016 00:03

[Цитировать]

Красотка- Жанр: мелодрама
Год выпуска: 2012
Продолжительность: 01:30:02-Режиссер:
Дмитрий Петрунь-В ролях:
Илья Носков, Анна Старшенбаум, Сергей Комаров, Наталия Антонова, Игорь Ясулович, Роман Мадянов, Ричард Бондарев, Сергей Серов, Ольга Хохлова, Ольга Штыркова, Ангелина Лакатош, Юрий Бондаренко, Юрий Гумиров, Юлия Ковалёва, Анастасия Логинова, Елена Блинникова, Наталья Унгард, Александр Федичкин, Михаил Инчин, Василий Бочкарёв, Леонид Трегуб, Александр Сибирцев, Алексей Белоус, Николай Аверюшкин, Владимир Кебин, Кирилл Мелехов, Станислав Герасимов, Даниил Семченков, Павел Чернявский-Описание:
Молодому и успешному предпринимателю Кириллу предстоит важный деловой ужин, который может значительно повлиять на его бизнес и принести хорошую прибыль. Только есть одно условие: на этот ужин он должен пригласить свою невесту, с которой еще никого не познакомил. И, как назло, пара накануне ссорится. Теперь Кириллу срочно нужна замена - и она не заставляет себя ждать. Он знакомится с Лизой, она привлекательна и остроумна. Кирилл решает, что она подходит. Если бы он знал, с кем он связывается....-СЕМПЛ: http://multi-up.com/869724
Качество видео: HDTV 1080i
Формат видео: MPEG-TS
Видео: MPEG4 AVC, 1920x1080 (16:9), 25 fps, 7539 Кбит/сек
Аудио: MPEG Audio, 48 kHz, 2 ch 192 Кбит/сек

MediaInfo

Идентификатор : 1 (0x1)
Полное имя : Z:\Krasotka.(2013)bySat.ts
Формат : MPEG-TS
Размер файла : 5,12 Гбайт
Продолжительность : 1 ч. 30 м.
Режим общего битрейта : Переменный
Общий поток : 8135 Кбит/сек
Видео
Идентификатор : 306 (0x132)
Идентификатор меню : 1 (0x1)
Формат : AVC
Формат/Информация : Advanced Video Codec
Профиль формата : High@L4.0
Параметр CABAC формата : Да
Параметр ReFrames формата : 3 кадра
Идентификатор кодека : 27
Продолжительность : 1 ч. 30 м.
Битрейт : 7539 Кбит/сек
Ширина : 1920 пикселей
Высота : 1080 пикселей
Соотношение сторон : 16:9
Частота кадров : 25,000 кадров/сек
Стандарт вещания : Component
Цветовое пространство : YUV
Субдискретизация насыщенности : 4:2:0
Битовая глубина : 8 бит
Тип развёртки : Чересстрочная
Порядок развёртки : Верхнее поле первое
Бит/(Пиксели*Кадры) : 0.145
Размер потока : 4,74 Гбайт (93%)
Основные цвета : BT.709
Характеристики трансфера : BT.709
Коэффициенты матрицы : BT.709
Аудио
Идентификатор : 406 (0x196)
Идентификатор меню : 1 (0x1)
Формат : MPEG Audio
Версия формата : Version 1
Профиль формата : Layer 2
Идентификатор кодека : 3
Продолжительность : 1 ч. 30 м.
Вид битрейта : Постоянный
Битрейт : 192 Кбит/сек
Каналы : 2 канала
Частота : 48,0 КГц
Метод сжатия : С потерями
Размер потока : 124 Мбайт (2%)
Язык : English

Скриншот с названием фильма

Скриншоты

[Профиль] [ЛС]
Кто просматривает тему:

Форум Тема Автор Размер
Фильмы 2011 года Бесценный / Роковая красотка / Hors de prix (Пьер Сальвадори / Pierre Salvadori) [2006, Франция, мелодрама, комедия, DVDRip] AVO (Евгений Гранкин) + Original Fre TorrentFilm 1.5 GB
Фильмы 2011 года В ловушке красоты / Cherry Crush (2007) DVDRip | P Russian Mafia 1.37 GB
Зарубежные сериалы Дворняжка Ляля / Красотка Ляля [02х01-24 из 30] (2014) SATRip от Files-x Белочка 12.88 GB
Документальные HD Дикая красота Корсики / Corsica wild beauty (Jean Froment) [2013, Документальный, HDTV 1080i] TorrentFilm 10.88 GB
Культура и искусство Императорский дворец в Киото. Красота, неподвластная времени / Kyoto Imperial Palace. Beauty Hidden for a Thousand Years (Kenichi Kuroda, Yusuke Yagishita) [2015 г., Дкументальный, архите... skorpionN 1.84 GB
Фильмы 2017 года Картина красоты / Picture of Beauty (2017) DVDRip | L1 BOSS 673 MB
Фильмы (HD Rips | 720p, 1080p) Красота по-английски / Stage Beauty (2004) BDRip 720р | P Russian Mafia 7.32 GB
Документальные HD Красота по-русски (Андрей Кузнецов) [2015, Документальны, HDTV 720p] TorrentFilm 1.29 GB
Показать сообщения:    

Текущее время: Сегодня 07:17

Часовой пояс: GMT



Вы не можете начинать темы
Вы не можете отвечать на сообщения
Вы не можете редактировать свои сообщения
Вы не можете удалять свои сообщения
Вы не можете голосовать в опросах
Вы не можете прикреплять файлы к сообщениям
Вы не можете скачивать файлы