Красотка / Pretty Woman (Гэрри Маршалл)[1990, Мелодрама, комедия, BDRip] 720p | D, P2, A, L1

 
Автор Сообщение

sergej644 ®

Пол:

Стаж: 4 года 11 месяцев

Сообщений: 6046

Откуда: Soviet Union



Награды: Нет

Торрент-статистика

Создавать темы 10-Фев-2015 10:00

[Цитировать]

--Красотка / Pretty Woman (1990)
Год выпуска: 1990
Страна: США
Жанр: Мелодрама, комедия
Продолжительность: 01:59:45
Перевод: Дублированный, профессиональный двухголосый, авторский, любительский одноголосый
Субтитры: русские, английские (все отдельно)
Режиссёр: Гэрри Маршалл
В ролях: Ричард Гир, Джулия Робертс, Ральф Беллами, Джейсон Александер, Лора Сан Джакомо, Алекс Хайд-Вайт, Эми Ясбек, Элинор Донахью, Гектор Элизондо, Джудит Болдуин, Джейсон Рендал, Билл Эпплбаум, Трэйси Бьорк, Гари Грин, Билли Галло, Абдул Салаам Эль Раззас, Хэнк Азария, Ларри Хэнкин
Описание: Финансовый магнат Эдвард Льюис, проезжая по ночному городу, останавливается около красивой женщины. Её зовут Вивьен, и она берёт только наличными. Наутро он понимает, что не хочет расставаться с ней и предлагает девушке остаться в его номере в отеле ещё на некоторое время за дополнительный гонорар.Вивьен оказывается в море блеска и лжи. Она терпит небрежное отношение к ней ради понравившегося мужчины, который перестал быть для неё просто клиентом...

Качество: BDRip 720p
Формат: MKV
Видео кодек: H.264
Аудио кодек: AC3
Видео: 1280x694, 7161 kbps, 23.976 кадра/с, 0.336 bpp
Аудио 1: русский, AC3, 640 kbps, 6 ch, 48 kHz [дублированный, студия Нева, СЕЕ]
Аудио 2: русский, AC3, 448 kbps, 6 ch, 48 kHz [профессиональный двухголосый, OPT]
Аудио 3: русский, AC3, 384 kbps, 6 ch, 48 kHz [авторский, Андрей Гаврилов]
Аудио 4: русский, AC3, 384 kbps, 6 ch, 48 kHz [авторский, Алексей Михалёв]
Отдельные файлы
Аудио: русский, AC3, 192 kbps, 2 ch, 48 kHz [дублированный, OPT]
Аудио: русский, AC3, 192 kbps, 2 ch, 48 kHz [Профессиональный двухголосый, Видеосервис]
Аудио: русский, AC3, 192 kbps, 2 ch, 48 kHz [авторский, ВасилийГорчаков]
Аудио: русский, AC3, 192 kbps, 2 ch, 48 kHz [авторский, Сергей Визгунов]
Аудио: русский, AC3, 448 kbps, 6 ch, 48 kHz [любительский одноголосый, вариант 1]
Аудио: русский, AC3, 192 kbps, 2 ch, 48 kHz [любительский одноголосый, вариант 2]
Аудио: английский, AC3, 448 kbps, 6 ch, 48 kHz [оригинал]
Имеются поименованные главы/чаптеры.

Награды

Оскар, 1991 год
Номинации (1):
Лучшая женская роль (Джулия Робертс)
Золотой глобус, 1991 год
Победитель (1):
Лучшая женская роль (комедия или мюзикл) (Джулия Робертс)
Номинации (3):
Лучший фильм (комедия или мюзикл)
Лучшая мужская роль (комедия или мюзикл) (Ричард Гир)
Лучшая мужская роль второго плана (Гектор Элизондо)
Британская академия, 1991 год
Номинации (4):
Лучший фильм
Лучшая женская роль (Джулия Робертс)
Лучший оригинальный сценарий
Лучшие костюмы
Сезар, 1991 год
Номинации (1):
Лучший фильм на иностранном языке

MediaInfo

frame I:1265  Avg QP:17.20  size:123869
frame P:32964 Avg QP:18.26  size: 63773
frame B:137847 Avg QP:20.52  size: 31459
Общее
Полное имя                               : D:VideoKrasotka.1990.BDRip.720pKrasotka.1990.AVO.rus.В.Горчаков.ac3
Формат                                   : AC-3
Формат/Информация                        : Audio Coding 3
Размер файла                             : 164 Мбайт
Продолжительность                        : 1 ч. 59 м.
Режим общего битрейта                    : Постоянный
Общий поток                              : 192 Кбит/сек
Аудио
Формат                                   : AC-3
Формат/Информация                        : Audio Coding 3
Расширение режима                        : CM (complete main)
Параметр Endianness формата              : Big
Продолжительность                        : 1 ч. 59 м.
Вид битрейта                             : Постоянный
Битрейт                                  : 192 Кбит/сек
Каналы                                   : 2 канала
Расположение каналов                     : Front: L R
Частота                                  : 48,0 КГц
Битовая глубина                          : 16 бит
Метод сжатия                             : С потерями
Размер потока                            : 164 Мбайт (100%)
Общее
Полное имя                               : D:VideoKrasotka.1990.BDRip.720pKrasotka.1990.AVO.rus.С.Визгунов.ac3
Формат                                   : AC-3
Формат/Информация                        : Audio Coding 3
Размер файла                             : 164 Мбайт
Продолжительность                        : 1 ч. 59 м.
Режим общего битрейта                    : Постоянный
Общий поток                              : 192 Кбит/сек
Аудио
Формат                                   : AC-3
Формат/Информация                        : Audio Coding 3
Расширение режима                        : CM (complete main)
Параметр Endianness формата              : Big
Продолжительность                        : 1 ч. 59 м.
Вид битрейта                             : Постоянный
Битрейт                                  : 192 Кбит/сек
Каналы                                   : 2 канала
Расположение каналов                     : Front: L R
Частота                                  : 48,0 КГц
Битовая глубина                          : 16 бит
Метод сжатия                             : С потерями
Размер потока                            : 164 Мбайт (100%)
Общее
Уникальный идентификатор                 : 252640882021022057293632405497802353632 (0xBE10DD2E30E638C6856F8D5B9F976BE0)
Полное имя                               : D:VideoKrasotka.1990.BDRip.720pKrasotka.1990.BDRip.720p.mkv
Формат                                   : Matroska
Версия формата                           : Version 4 / Version 2
Размер файла                             : 7,70 Гбайт
Продолжительность                        : 1 ч. 59 м.
Общий поток                              : 9200 Кбит/сек
Дата кодирования                         : UTC 2014-10-05 02:12:35
Программа кодирования                    : mkvmerge v6.9.1 ('Blue Panther') 64bit built on Apr 18 2014 18:23:38
Библиотека кодирования                   : libebml v1.3.0 + libmatroska v1.4.1
Видео
Идентификатор                            : 1
Формат                                   : AVC
Формат/Информация                        : Advanced Video Codec
Профиль формата                          : High@L4.1
Параметр CABAC формата                   : Да
Параметр ReFrames формата                : 9 кадров
Идентификатор кодека                     : V_MPEG4/ISO/AVC
Продолжительность                        : 1 ч. 59 м.
Битрейт                                  : 7161 Кбит/сек
Ширина                                   : 1280 пикселей
Высота                                   : 694 пикселя
Соотношение сторон                       : 1,85:1
Режим частоты кадров                     : Постоянный
Частота кадров                           : 23,976 кадра/сек
Цветовое пространство                    : YUV
Субдискретизация насыщенности            : 4:2:0
Битовая глубина                          : 8 бит
Тип развёртки                            : Прогрессивная
Бит/(Пиксели*Кадры)                      : 0.336
Размер потока                            : 5,99 Гбайт (78%)
Заголовок                                : BDRip  --  STarankov
Библиотека кодирования                   : x264 core 142 r2431 ac76440
Настройки программы                      : cabac=1 / ref=9 / deblock=1:-1:-1 / analyse=0x3:0x113 / me=umh / subme=10 / psy=1 / psy_rd=1.00:0.15 / mixed_ref=1 / me_range=32 / chroma_me=1 / trellis=2 / 8x8dct=1 / cqm=0 / deadzone=21,11 / fast_pskip=0 / chroma_qp_offset=-3 / threads=6 / lookahead_threads=1 / sliced_threads=0 / nr=0 / decimate=1 / interlaced=0 / bluray_compat=0 / constrained_intra=0 / bframes=8 / b_pyramid=2 / b_adapt=2 / b_bias=0 / direct=1 / weightb=1 / open_gop=0 / weightp=2 / keyint=230 / keyint_min=23 / scenecut=40 / intra_refresh=0 / rc_lookahead=40 / rc=crf / mbtree=0 / crf=18.0 / qcomp=0.60 / qpmin=0 / qpmax=69 / qpstep=4 / vbv_maxrate=40000 / vbv_bufsize=50000 / crf_max=0.0 / nal_hrd=none / filler=0 / ip_ratio=1.40 / pb_ratio=1.30 / aq=1:1.00
Язык                                     : English
Default                                  : Да
Forced                                   : Нет
Аудио #1
Идентификатор                            : 2
Формат                                   : AC-3
Формат/Информация                        : Audio Coding 3
Расширение режима                        : CM (complete main)
Параметр Endianness формата              : Big
Идентификатор кодека                     : A_AC3
Продолжительность                        : 1 ч. 59 м.
Вид битрейта                             : Постоянный
Битрейт                                  : 640 Кбит/сек
Каналы                                   : 6 каналов
Расположение каналов                     : Front: L C R, Side: L R, LFE
Частота                                  : 48,0 КГц
Битовая глубина                          : 16 бит
Метод сжатия                             : С потерями
Размер потока                            : 548 Мбайт (7%)
Заголовок                                : DUB (студия Нева, СЕЕ)
Язык                                     : Russian
Default                                  : Да
Forced                                   : Нет
Аудио #2
Идентификатор                            : 3
Формат                                   : AC-3
Формат/Информация                        : Audio Coding 3
Расширение режима                        : CM (complete main)
Параметр Endianness формата              : Big
Идентификатор кодека                     : A_AC3
Продолжительность                        : 1 ч. 59 м.
Вид битрейта                             : Постоянный
Битрейт                                  : 448 Кбит/сек
Каналы                                   : 6 каналов
Расположение каналов                     : Front: L C R, Side: L R, LFE
Частота                                  : 48,0 КГц
Битовая глубина                          : 16 бит
Метод сжатия                             : С потерями
Размер потока                            : 384 Мбайт (5%)
Заголовок                                : DVO (OPT)
Язык                                     : Russian
Default                                  : Нет
Forced                                   : Нет
Аудио #3
Идентификатор                            : 4
Формат                                   : AC-3
Формат/Информация                        : Audio Coding 3
Расширение режима                        : CM (complete main)
Параметр Endianness формата              : Big
Идентификатор кодека                     : A_AC3
Продолжительность                        : 1 ч. 59 м.
Вид битрейта                             : Постоянный
Битрейт                                  : 384 Кбит/сек
Каналы                                   : 6 каналов
Расположение каналов                     : Front: L C R, Side: L R, LFE
Частота                                  : 48,0 КГц
Битовая глубина                          : 16 бит
Метод сжатия                             : С потерями
Размер потока                            : 329 Мбайт (4%)
Заголовок                                : AVO (Андрей Гаврилов)
Язык                                     : Russian
Default                                  : Нет
Forced                                   : Нет
Аудио #4
Идентификатор                            : 5
Формат                                   : AC-3
Формат/Информация                        : Audio Coding 3
Расширение режима                        : CM (complete main)
Параметр Endianness формата              : Big
Идентификатор кодека                     : A_AC3
Продолжительность                        : 1 ч. 59 м.
Вид битрейта                             : Постоянный
Битрейт                                  : 384 Кбит/сек
Каналы                                   : 6 каналов
Расположение каналов                     : Front: L C R, Side: L R, LFE
Частота                                  : 48,0 КГц
Битовая глубина                          : 16 бит
Метод сжатия                             : С потерями
Размер потока                            : 329 Мбайт (4%)
Заголовок                                : AVO (Алексей Михалёв)
Язык                                     : Russian
Default                                  : Нет
Forced                                   : Нет
Меню
00:00:00.000                             : en:Opening Credits
00:09:26.399                             : en:Lookin' For A Date?
00:13:39.235                             : en:In The Driver's Seat
00:18:51.130                             : en:The Penthouse
00:34:00.038                             : en:A Business Proposition
00:41:51.968                             : en:Trouble At The Hotel
00:44:46.684                             : en:A Setback
00:49:52.031                             : en:Working Dinner
00:54:50.078                             : en:Love On A Piano
01:00:35.757                             : en:Shopping Spree
01:08:36.487                             : en:At The Polo Match
01:17:20.636                             : en:Pillow Talk
01:21:09.323                             : en:Dressed To The Nines
01:29:10.178                             : en:Just Semantics
01:35:29.140                             : en:A Change Of Interest
01:42:23.637                             : en:Unpleasant Caller
01:48:39.596                             : en:Back To Reality
01:52:34.456                             : en:Princess Vivian
01:56:27.189                             : en:End Credits
Общее
Полное имя                               : D:VideoKrasotka.1990.BDRip.720pKrasotka.1990.DUB.rus.OPT.ac3
Формат                                   : AC-3
Формат/Информация                        : Audio Coding 3
Размер файла                             : 164 Мбайт
Продолжительность                        : 1 ч. 59 м.
Режим общего битрейта                    : Постоянный
Общий поток                              : 192 Кбит/сек
Аудио
Формат                                   : AC-3
Формат/Информация                        : Audio Coding 3
Расширение режима                        : CM (complete main)
Параметр Endianness формата              : Big
Продолжительность                        : 1 ч. 59 м.
Вид битрейта                             : Постоянный
Битрейт                                  : 192 Кбит/сек
Каналы                                   : 2 канала
Расположение каналов                     : Front: L R
Частота                                  : 48,0 КГц
Битовая глубина                          : 16 бит
Метод сжатия                             : С потерями
Размер потока                            : 164 Мбайт (100%)
Общее
Полное имя                               : D:VideoKrasotka.1990.BDRip.720pKrasotka.1990.DVO.rus.Видеосервис.ac3
Формат                                   : AC-3
Формат/Информация                        : Audio Coding 3
Размер файла                             : 164 Мбайт
Продолжительность                        : 1 ч. 59 м.
Режим общего битрейта                    : Постоянный
Общий поток                              : 192 Кбит/сек
Аудио
Формат                                   : AC-3
Формат/Информация                        : Audio Coding 3
Расширение режима                        : CM (complete main)
Параметр Endianness формата              : Big
Продолжительность                        : 1 ч. 59 м.
Вид битрейта                             : Постоянный
Битрейт                                  : 192 Кбит/сек
Каналы                                   : 2 канала
Расположение каналов                     : Front: L R
Частота                                  : 48,0 КГц
Битовая глубина                          : 16 бит
Метод сжатия                             : С потерями
Размер потока                            : 164 Мбайт (100%)
Общее
Полное имя                               : D:VideoKrasotka.1990.BDRip.720pKrasotka.1990.eng.srt
Формат                                   : SubRip
Размер файла                             : 116 Кбайт
Текст
Формат                                   : SubRip
Метод сжатия                             : Без потерь
Общее
Полное имя                               : D:VideoKrasotka.1990.BDRip.720pKrasotka.1990.Original.eng.ac3
Формат                                   : AC-3
Формат/Информация                        : Audio Coding 3
Размер файла                             : 383 Мбайт
Продолжительность                        : 1 ч. 59 м.
Режим общего битрейта                    : Постоянный
Общий поток                              : 448 Кбит/сек
Аудио
Формат                                   : AC-3
Формат/Информация                        : Audio Coding 3
Расширение режима                        : CM (complete main)
Параметр Endianness формата              : Big
Продолжительность                        : 1 ч. 59 м.
Вид битрейта                             : Постоянный
Битрейт                                  : 448 Кбит/сек
Каналы                                   : 6 каналов
Расположение каналов                     : Front: L C R, Side: L R, LFE
Частота                                  : 48,0 КГц
Битовая глубина                          : 16 бит
Метод сжатия                             : С потерями
Размер потока                            : 383 Мбайт (100%)
Общее
Полное имя                               : D:VideoKrasotka.1990.BDRip.720pKrasotka.1990.rus.srt
Формат                                   : SubRip
Размер файла                             : 143 Кбайт
Текст
Формат                                   : SubRip
Метод сжатия                             : Без потерь
Общее
Полное имя                               : D:VideoKrasotka.1990.BDRip.720pKrasotka.1990.VO1.rus.любительский одноголосый.ac3
Формат                                   : AC-3
Формат/Информация                        : Audio Coding 3
Размер файла                             : 384 Мбайт
Продолжительность                        : 1 ч. 59 м.
Режим общего битрейта                    : Постоянный
Общий поток                              : 448 Кбит/сек
Аудио
Формат                                   : AC-3
Формат/Информация                        : Audio Coding 3
Расширение режима                        : CM (complete main)
Параметр Endianness формата              : Big
Продолжительность                        : 1 ч. 59 м.
Вид битрейта                             : Постоянный
Битрейт                                  : 448 Кбит/сек
Каналы                                   : 6 каналов
Расположение каналов                     : Front: L C R, Side: L R, LFE
Частота                                  : 48,0 КГц
Битовая глубина                          : 16 бит
Метод сжатия                             : С потерями
Размер потока                            : 384 Мбайт (100%)
Общее
Полное имя                               : D:VideoKrasotka.1990.BDRip.720pKrasotka.1990.VO2.rus.любительский одноголосый.ac3
Формат                                   : AC-3
Формат/Информация                        : Audio Coding 3
Размер файла                             : 164 Мбайт
Продолжительность                        : 1 ч. 59 м.
Режим общего битрейта                    : Постоянный
Общий поток                              : 192 Кбит/сек
Аудио
Формат                                   : AC-3
Формат/Информация                        : Audio Coding 3
Расширение режима                        : CM (complete main)
Параметр Endianness формата              : Big
Продолжительность                        : 1 ч. 59 м.
Вид битрейта                             : Постоянный
Битрейт                                  : 192 Кбит/сек
Каналы                                   : 2 канала
Расположение каналов                     : Front: L R
Частота                                  : 48,0 КГц
Битовая глубина                          : 16 бит
Метод сжатия                             : С потерями
Размер потока                            : 164 Мбайт (100%)

Скриншоты (увеличить)

[Профиль] [ЛС]
Показать сообщения:    

Текущее время: Сегодня 00:36

Часовой пояс: GMT



Вы не можете начинать темы
Вы не можете отвечать на сообщения
Вы не можете редактировать свои сообщения
Вы не можете удалять свои сообщения
Вы не можете голосовать в опросах
Вы не можете прикреплять файлы к сообщениям
Вы не можете скачивать файлы