Красные шапочки (Александр Гурьев) [2009, Россия, мультфильм, экранизация, WEBRip]

 
Автор Сообщение

TorrentFilm ®

Пол:

Стаж: 2 года

Сообщений: 7741



Награды: Нет

Торрент-статистика

Создавать темы 03-Янв-2016 00:18

[Цитировать]

Красные шапочки
Страна: Россия
Жанр: мультфильм, экранизация
Продолжительность: 00:13:03
Год выпуска: 2009
Режиссёр: Александр Гурьев
Описание: По рассказу Артура Гиваргизова.
Времена нынче не те, и Красные Шапочки какие-то странные. Может быть, это призраки? Волки в лесу чувствуют себя неуютно...
Качество: WEBRip
Формат: AVI
Видео: 2267 kbps, 704х528 (5:4), 25.000 fps, MPEG-4 Visual (XviD)
Аудио: 192 kbps, 44.1 kHz, 2 channels, MPEG Audio (MP3)
Субтитры: отсутствуют

Подробные технические данные

GeneralComplete name : Красные шапочки (2009).aviFormat : AVIFormat/Info : Audio Video InterleaveFile size : 231 MiBDuration : 13mn 3sOverall bit rate : 2 471 KbpsWriting application : MEncoder SVN-r30881(20100311-gcc4.3.3)Writing library : MPlayer
VideoID : 0Format : MPEG-4 VisualFormat profile : Advanced Simple@L5Format settings, BVOP : 2Format settings, QPel : NoFormat settings, GMC : No warppointsFormat settings, Matrix : Default (H.263)Codec ID : XVIDCodec ID/Hint : XviDDuration : 13mn 3sBit rate : 2 267 KbpsWidth : 704 pixelsHeight : 528 pixelsDisplay aspect ratio : 5:4Original display aspect ratio : 4:3Frame rate : 25.000 fpsColor space : YUVChroma subsampling : 4:2:0Bit depth : 8 bitsScan type : ProgressiveCompression mode : LossyBits/(Pixel*Frame) : 0.244Stream size : 212 MiB (92%)Writing library : XviD 1.2.1 (UTC 2008-12-04)
AudioID : 1Format : MPEG AudioFormat version : Version 1Format profile : Layer 3Mode : Joint stereoMode extension : MS StereoCodec ID : 55Codec ID/Hint : MP3Duration : 13mn 3sBit rate mode : ConstantBit rate : 192 KbpsChannel(s) : 2 channelsSampling rate : 44.1 KHzCompression mode : LossyDelay relative to video : 40msStream size : 17.9 MiB (8%)Alignment : Aligned on interleavesInterleave, duration : 26 ms (0.65 video frame)Interleave, preload duration : 522 msWriting library : LAME3.98

Скриншоты

[Профиль] [ЛС]
Показать сообщения:    

Текущее время: Сегодня 22:22

Часовой пояс: GMT



Вы не можете начинать темы
Вы не можете отвечать на сообщения
Вы не можете редактировать свои сообщения
Вы не можете удалять свои сообщения
Вы не можете голосовать в опросах
Вы не можете прикреплять файлы к сообщениям
Вы не можете скачивать файлы