Красные огни / Red Lights (2012) BDRip 720p от ivandubskoj | GER Transfer | D, A

 
Автор Сообщение

Russian Mafia ®

Пол:

Стаж: 1 год 8 месяцев

Сообщений: 4252



Награды: 10 (Подробнее)

Mega Seeder 1 (Количество: 1) Mega Seeder 4 (Количество: 1) Top Releaser 3 (Количество: 1)
Торрент-статистика

Создавать темы 12-Апр-2016 19:05

[Цитировать]

Информация о фильме
Название: Красные огни
Оригинальное название: Red Lights
Год выхода: 2012
Жанр: Триллер, драма, детектив
Режиссёр: Родриго Кортес
В ролях: Роберт Де Ниро, Сигурни Уивер, Киллиан Мёрфи, Элизабет Олсен, Тоби Джонс, Джоэли Ричардсон, Крэйг Робертс, Берн Горман, Карен Шенас-Дэвид, Жан Корнет
О фильме:
Ученые-скептики Маргарет Мэтисон и ее ассистент, Том Бакли, занимаются разоблачением шарлатанов. Изучение паранормального приводит их к столкновению с давним противником доктора Мэтисон — человеком по имени Сильвер. Объявив о своем возвращении, Сильвер впервые за многие годы выступает перед широкой публикой. Знавшие экстрасенса люди не забыли, что незадолго до добровольного ухода Сильвера со сцены таинственной смертью погиб основной критик его деятельности.

Выпущено: США, Испания, Antena 3 Films, Cindy Cowan Entertainment, Nostromo Pictures
Продолжительность: 01:53:40
Перевод: Дублированный (Мосфильм-Мастер), авторский одноголосый (Ю. Немахов)
Оригинальная аудио-дорожка: Английская
Файл
Контейнер: MKV
Кодек: MPEG-4 AVC
Качество: BDRip (720p) [Исходник: Blu-Ray Custom 1080p | Ger Transfer от BlueBird и CMEGroup]
Видео: MPEG-4 AVC, 1280x544 (2.35:1), 5000 Кбит/с, 24 кадр/с, 0.299 bit/pixel
Аудио #1: Русский, Dolby AC3, 48000 Гц, 640 Кбит/с, 6 каналов (5.1) - DUB [Мосфильм-Мастер]
Аудио #2: Русский, Dolby AC3, 48000 Гц, 640 Кбит/с, 6 каналов (5.1) - AVO [Ю. Немахов]
Аудио #3: Английский, Dolby AC3, 48000 Гц, 640 Кбит/с, 6 каналов (5.1) - Оригинал
Субтитры: Русские, украинские (полные), английские (полные, SDH), SRT
Навигация по главам: Есть (Сохранены оригинальные чаптеры, как на Blu-ray)

Благодарности

За немецкий трансфер - огромная благодарность BLUEBIRD!
За предоставленный "чистый голос" Ю. Немахова - огромная благодарность timur и Alberto Mauri! И конечно, же самому переводчику!
За работу со звуком и видео - огромная благодарность ivandubskoj!

MediaInfo

General
Unique ID : 209133326311878555275810467419528471596 (0x9D559D11B347EC64AB861C54EE51A42C)
Complete name : Red.Lights.2012.BDRip.720p.mkv
Format : Matroska
Format version : Version 4 / Version 2
File size : 5.50 GiB
Duration : 1h 53mn
Overall bit rate : 6 922 Kbps
Movie name : Красные огни / Red Lights (2012) BDRip (720p) от ivandubskoj
Encoded date : UTC 2016-04-12 13:06:33
Writing application : mkvmerge v7.8.0 ('River Man') 64bit built on Mar 27 2015 16:31:37
Writing library : libebml v1.3.1 + libmatroska v1.4.2
Video
ID : 1
Format : AVC
Format/Info : Advanced Video Codec
Format profile : High@L4.1
Format settings, CABAC : Yes
Format settings, ReFrames : 10 frames
Codec ID : V_MPEG4/ISO/AVC
Duration : 1h 53mn
Bit rate : 5 000 Kbps
Width : 1 280 pixels
Height : 544 pixels
Display aspect ratio : 2.35:1
Frame rate mode : Constant
Frame rate : 24.000 fps
Color space : YUV
Chroma subsampling : 4:2:0
Bit depth : 8 bits
Scan type : Progressive
Bits/(Pixel*Frame) : 0.299
Stream size : 3.86 GiB (70%)
Title : Красные огни / Red Lights (2012)
Writing library : x264 core 146 r2538 121396c
Encoding settings : cabac=1 / ref=10 / deblock=1:-3:-3 / analyse=0x3:0x113 / me=umh / subme=11 / psy=1 / psy_rd=1.10:0.00 / mixed_ref=1 / me_range=32 / chroma_me=1 / trellis=2 / 8x8dct=1 / cqm=0 / deadzone=21,11 / fast_pskip=0 / chroma_qp_offset=-2 / threads=6 / lookahead_threads=1 / sliced_threads=0 / nr=0 / decimate=0 / interlaced=0 / bluray_compat=0 / constrained_intra=0 / bframes=7 / b_pyramid=2 / b_adapt=2 / b_bias=0 / direct=3 / weightb=1 / open_gop=0 / weightp=2 / keyint=240 / keyint_min=23 / scenecut=40 / intra_refresh=0 / rc_lookahead=40 / rc=2pass / mbtree=0 / bitrate=5000 / ratetol=1.0 / qcomp=0.60 / qpmin=0 / qpmax=69 / qpstep=4 / cplxblur=20.0 / qblur=0.5 / vbv_maxrate=50000 / vbv_bufsize=62500 / nal_hrd=none / filler=0 / ip_ratio=1.40 / pb_ratio=1.30 / aq=1:1.00
Language : English
Default : Yes
Forced : No
Audio #1
ID : 2
Format : AC-3
Format/Info : Audio Coding 3
Mode extension : CM (complete main)
Format settings, Endianness : Big
Codec ID : A_AC3
Duration : 1h 53mn
Bit rate mode : Constant
Bit rate : 640 Kbps
Channel(s) : 6 channels
Channel positions : Front: L C R, Side: L R, LFE
Sampling rate : 48.0 KHz
Bit depth : 16 bits
Compression mode : Lossy
Stream size : 520 MiB (9%)
Title : DUB [Мосфильм-Мастер]
Language : Russian
Default : Yes
Forced : No
Audio #2
ID : 3
Format : AC-3
Format/Info : Audio Coding 3
Mode extension : CM (complete main)
Format settings, Endianness : Big
Codec ID : A_AC3
Duration : 1h 53mn
Bit rate mode : Constant
Bit rate : 640 Kbps
Channel(s) : 6 channels
Channel positions : Front: L C R, Side: L R, LFE
Sampling rate : 48.0 KHz
Bit depth : 16 bits
Compression mode : Lossy
Stream size : 520 MiB (9%)
Title : AVO [Ю. Немахов]
Language : Russian
Default : No
Forced : No
Audio #3
ID : 4
Format : AC-3
Format/Info : Audio Coding 3
Mode extension : CM (complete main)
Format settings, Endianness : Big
Codec ID : A_AC3
Duration : 1h 53mn
Bit rate mode : Constant
Bit rate : 640 Kbps
Channel(s) : 6 channels
Channel positions : Front: L C R, Side: L R, LFE
Sampling rate : 48.0 KHz
Bit depth : 16 bits
Compression mode : Lossy
Stream size : 520 MiB (9%)
Title : Original
Language : English
Default : No
Forced : No
Text #1
ID : 5
Format : UTF-8
Codec ID : S_TEXT/UTF8
Codec ID/Info : UTF-8 Plain Text
Title : Full
Language : Russian
Default : No
Forced : No
Text #2
ID : 6
Format : UTF-8
Codec ID : S_TEXT/UTF8
Codec ID/Info : UTF-8 Plain Text
Title : Full
Language : Ukrainian
Default : No
Forced : No
Text #3
ID : 7
Format : UTF-8
Codec ID : S_TEXT/UTF8
Codec ID/Info : UTF-8 Plain Text
Title : Full
Language : English
Default : No
Forced : No
Text #4
ID : 8
Format : UTF-8
Codec ID : S_TEXT/UTF8
Codec ID/Info : UTF-8 Plain Text
Title : Full [SDH]
Language : English
Default : No
Forced : No
Menu
00:00:00.000 : en:Chapter 1
00:04:24.041 : en:Chapter 2
00:09:05.666 : en:Chapter 3
00:19:38.125 : en:Chapter 4
00:27:06.291 : en:Chapter 5
00:35:05.166 : en:Chapter 6
00:44:43.583 : en:Chapter 7
00:49:00.833 : en:Chapter 8
00:55:36.250 : en:Chapter 9
01:04:12.458 : en:Chapter 10
01:11:43.666 : en:Chapter 11
01:18:24.291 : en:Chapter 12
01:24:07.541 : en:Chapter 13
01:31:58.916 : en:Chapter 14
01:39:18.583 : en:Chapter 15
01:47:52.250 : en:Chapter 16

Скриншоты

Автор рипа - ivandubskoj
[Профиль] [ЛС]
Показать сообщения:    

Текущее время: Сегодня 20:37

Часовой пояс: GMT



Вы не можете начинать темы
Вы не можете отвечать на сообщения
Вы не можете редактировать свои сообщения
Вы не можете удалять свои сообщения
Вы не можете голосовать в опросах
Вы не можете прикреплять файлы к сообщениям
Вы не можете скачивать файлы