Красная скрипка / Le Violon rouge (1998) BDRip 1080p | P

 
Автор Сообщение

sergej644 ®

Пол:

Стаж: 4 года 11 месяцев

Сообщений: 6043

Откуда: Soviet Union



Награды: Нет

Торрент-статистика

Создавать темы 01-Мар-2015 08:43

[Цитировать]

Год выпуска: 1998
Страна: Канада, Италия
Жанр: драма, мелодрама, детектив, музыка
Продолжительность: 02:10:08
Перевод: профессиональный многоголосый
Субтитры: русские, английские
Режиссёр: Франсуа Жирар
В ролях: Сэмюэл Л. Джексон, Дон МакКеллар, Карло Чекки, Ирене Грациоли, Анита Лауренци, Жан-Люк Бидо, Кристоф Конц, Клотильд Молле, Джейсон Флеминг, Грета Скакки, Сильвия Чан, Лю Цзифэн, Колм Фиор, Моник Меркюр, Вольфган Бёк, Дэвид Гант, Сай-Кит Юнг, Флорентин Гролл, Йоханнес Зильбершнайдер, Тао Хун, Сяошуай Ван, Джулиан Ричингс, Расселл Юэнь, Сандра О, Реми Жирар, Доротея Берриман, Григорий Гладий
Описание: Накануне аукциона группа экспертов, возглавляемая Чарльзом Моррицем, исследует необычную по своему цвету и идеально звучащую старинную скрипку. Выясняется её удивительное прошлое. Созданная в семнадцатом веке итальянским мастером Николо Буссоти, скрипка загадочным образом вершит судьбы своих владельцев, даруя и отнимая любовь, а порой и саму жизнь. Понимая истинную ценность скрипки, неизмеримую деньгами, словно заворожённый, Морриц пытается стать её обладателем...

Качество: BDRip 1080p
Формат: MKV
Видео кодек: H.264
Аудио кодек: AC3, DTS
Видео: 16.7 Mбит/с, 1920x1080, 23.976 кадра/с, 0.336 bpp
Аудио 1: русский, AC3, 448 kbps, 6 ch, 48 kHz [профессиональный многоголосый]
Аудио 2: английский, DTS, 1509 kbps, 6 ch, 48 kHz [оригинал]
Имеются неименованные главы/чаптеры.

Награды

8 призов «Гений» в Канаде — за фильм, режиссуру, сценарий, музыку, работу оператора, художника-постановщика (Франсуа Сегин — François Séguin), костюмы (Рене Априль — Renée April) и звук (Клод Ла Эй, Жослин Карон, Бернар Гарьепи-Штробль, Ханс Петер Штробль — Claude La Haye, Jocelyn Caron, Bernard Gariépy-Strobl, Hans Peter Strobl), 9 премий «Жютра» в провинции Квебек — за фильм, режиссуру, сценарий, работу оператора, художников (Франсуа Сегин и Рене Априль), второплановую мужскую роль (Колм Фиор), музыку, звук (Клод Ла Эй, Марсель Потье, Ханс Петер Штробль, Ги Пеллетье — Claude La Haye, Marcel Pothier, Hans Peter Strobl, Guy Pelletier), и монтаж (Гаэтан Юо — Gaétan Huot), приз за художественный вклад (поровну с фильмом «Дымовые сигналы» / Smoke Signals) на МКФ в Токио.
Оскар, 2000 год
Победитель (1):
Лучший оригинальный саундтрек
Золотой глобус, 2000 год
Номинации (1):
Лучший фильм на иностранном языке — «Канада, Италия»

MediaInfo

Общее
Уникальный идентификатор : 253059038596113688440620375630561364032 (0xBE6165E42E3D97E584338E7B11CB4840)
Полное имя : D:VideoKrasnaja skripka.1998.BDRip.1080p.mkv
Формат : Matroska
Версия формата : Version 4 / Version 2
Размер файла : 17,3 Гбайт
Продолжительность : 2 ч. 10 м.
Общий поток : 19,1 Мбит/сек
Дата кодирования : UTC 2015-02-21 05:06:57
Программа кодирования : mkvmerge v7.6.0 ('Garden of Dreams') 64bit built on Feb 8 2015 13:04:34
Библиотека кодирования : libebml v1.3.1 + libmatroska v1.4.2
_STATISTICS_WRITING_APP : mkvmerge v7.6.0 ('Garden of Dreams') 64bit built on Feb 8 2015 13:04:34
_STATISTICS_WRITING_DATE_UTC : 2015-02-21 05:06:57
_STATISTICS_TAGS : BPS DURATION NUMBER_OF_FRAMES NUMBER_OF_BYTES
DURATION : 02:10:08.491000000
NUMBER_OF_FRAMES : 732046
NUMBER_OF_BYTES : 1472876620
Видео
Идентификатор : 1
Формат : AVC
Формат/Информация : Advanced Video Codec
Профиль формата : High@L4.1
Параметр CABAC формата : Да
Параметр ReFrames формата : 4 кадра
Идентификатор кодека : V_MPEG4/ISO/AVC
Продолжительность : 2 ч. 10 м.
Битрейт : 16,7 Мбит/сек
Ширина : 1920 пикселей
Высота : 1080 пикселей
Соотношение сторон : 16:9
Режим частоты кадров : Постоянный
Частота кадров : 23,976 кадра/сек
Цветовое пространство : YUV
Субдискретизация насыщенности : 4:2:0
Битовая глубина : 8 бит
Тип развёртки : Прогрессивная
Бит/(Пиксели*Кадры) : 0.336
Размер потока : 15,2 Гбайт (88%)
Заголовок : BDRip -- STarankov
Библиотека кодирования : x264 core 142 r2431 ac76440
Настройки программы : cabac=1 / ref=4 / deblock=1:-1:-1 / analyse=0x3:0x113 / me=umh / subme=10 / psy=1 / psy_rd=1.00:0.15 / mixed_ref=1 / me_range=32 / chroma_me=1 / trellis=2 / 8x8dct=1 / cqm=0 / deadzone=21,11 / fast_pskip=1 / chroma_qp_offset=-3 / threads=6 / lookahead_threads=1 / sliced_threads=0 / nr=0 / decimate=1 / interlaced=0 / bluray_compat=0 / constrained_intra=0 / bframes=8 / b_pyramid=2 / b_adapt=2 / b_bias=0 / direct=3 / weightb=1 / open_gop=0 / weightp=2 / keyint=230 / keyint_min=23 / scenecut=40 / intra_refresh=0 / rc_lookahead=40 / rc=crf / mbtree=0 / crf=18.0 / qcomp=0.60 / qpmin=0 / qpmax=69 / qpstep=4 / vbv_maxrate=40000 / vbv_bufsize=50000 / crf_max=0.0 / nal_hrd=none / filler=0 / ip_ratio=1.40 / pb_ratio=1.30 / aq=1:1.00
Язык : English
Default : Да
Forced : Нет
DURATION : 02:10:08.343000000
NUMBER_OF_FRAMES : 187213
NUMBER_OF_BYTES : 16690650124
_STATISTICS_WRITING_APP : mkvmerge v7.6.0 ('Garden of Dreams') 64bit built on Feb 8 2015 13:04:34
_STATISTICS_WRITING_DATE_UTC : 2015-02-21 05:06:57
_STATISTICS_TAGS : BPS DURATION NUMBER_OF_FRAMES NUMBER_OF_BYTES
Аудио #1
Идентификатор : 2
Формат : AC-3
Формат/Информация : Audio Coding 3
Расширение режима : CM (complete main)
Параметр Endianness формата : Big
Идентификатор кодека : A_AC3
Продолжительность : 2 ч. 10 м.
Вид битрейта : Постоянный
Битрейт : 448 Кбит/сек
Каналы : 6 каналов
Расположение каналов : Front: L C R, Side: L R, LFE
Частота : 48,0 КГц
Битовая глубина : 16 бит
Метод сжатия : С потерями
Размер потока : 417 Мбайт (2%)
Заголовок : MVO
Язык : Russian
Default : Да
Forced : Нет
Аудио #2
Идентификатор : 3
Формат : DTS
Формат/Информация : Digital Theater Systems
Режим : 16
Параметр Endianness формата : Big
Идентификатор кодека : A_DTS
Продолжительность : 2 ч. 10 м.
Вид битрейта : Постоянный
Битрейт : 1509 Кбит/сек
Каналы : 6 каналов
Расположение каналов : Front: L C R, Side: L R, LFE
Частота : 48,0 КГц
Битовая глубина : 16 бит
Метод сжатия : С потерями
Размер потока : 1,37 Гбайт (8%)
Заголовок : Original
Язык : English
Default : Нет
Forced : Нет
Текст #1
Идентификатор : 4
Формат : UTF-8
Идентификатор кодека : S_TEXT/UTF8
Идентификатор кодека/Информация : UTF-8 Plain Text
Заголовок : русский
Язык : Russian
Default : Нет
Forced : Нет
Текст #2
Идентификатор : 5
Формат : UTF-8
Идентификатор кодека : S_TEXT/UTF8
Идентификатор кодека/Информация : UTF-8 Plain Text
Заголовок : английский
Default : Нет
Forced : Нет
Меню
00:00:00.000 : :Chapter 01
00:06:16.667 : :Chapter 02
00:18:21.141 : :Chapter 03
00:26:36.469 : :Chapter 04
00:33:00.520 : :Chapter 05
00:40:01.107 : :Chapter 06
00:47:14.039 : :Chapter 07
00:52:02.244 : :Chapter 08
00:57:15.348 : :Chapter 09
01:01:55.169 : :Chapter 10
01:08:16.967 : :Chapter 11
01:20:21.316 : :Chapter 12
01:34:22.198 : :Chapter 13
01:49:15.549 : :Chapter 14
01:57:17.572 : :Chapter 15
02:05:16.091 : :Chapter 16
02:10:08.217 : :Chapter 17

Скриншоты


[Профиль] [ЛС]
Показать сообщения:    

Текущее время: Сегодня 06:18

Часовой пояс: GMT



Вы не можете начинать темы
Вы не можете отвечать на сообщения
Вы не можете редактировать свои сообщения
Вы не можете удалять свои сообщения
Вы не можете голосовать в опросах
Вы не можете прикреплять файлы к сообщениям
Вы не можете скачивать файлы