Красная планета / Red Planet (2000) BDRip 1080p

 
Автор Сообщение

Russian Mafia ®

Пол:

Стаж: 1 год 8 месяцев

Сообщений: 4257



Награды: 10 (Подробнее)

Mega Seeder 3 (Количество: 1) Top Releaser 4 (Количество: 1) Top Releaser 5 (Количество: 1)
Торрент-статистика

Создавать темы 22-Окт-2015 05:58

[Цитировать]

Информация о фильме:
Название: Красная планета
Оригинальное название: Red Planet
Год выхода: 2000
Жанр: фантастика, боевик, триллер
Режиссер: Энтони Хоффман
В ролях: Вэл Килмер, Кэрри-Энн Мосс, Том Сайзмор, Бенджамин Брэтт, Саймон Бейкер, Теренс Стэмп, Джессика Б. Мортон, Кэролайн Босси, Боб Нилл, Нил Росси др.
О фильме:
В 21 веке Земля вымирает, и жить на ней становится все труднее. Ученые надеются основать колонию на Марсе. Команда из шести астронавтов отправляется на планету, чтобы осмотреть планету с целью ее пригодности для жизни.
Однако после полугодового полета к цели при самой посадке, возникают проблемы. Теперь перед астронавтами стоит проблема — как улететь с этой планеты.

Выпущено: США, Австралия
Продолжительность: 01:46:30
Перевод: Дублированный + Профессиональный многоголосый закадровый (НТВ) + Авторский (одноголосый закадровый) Ю.Живов + Оригинал
Файл
Кодек: x264
Качество: BDRip 1080p
Видео: 1920x800, 8960 Kbps, 23.976 fps
Аудио #1: AC-3, 6 ch, 384 kbps (Rus)|Дубляж, лицензия R5|
Аудио #2: AC-3, 2 ch, 192 kbps (Rus)|Многоголосый закадровый, НТВ|
Аудио #3: AC-3, 6 ch, 448 kbps (Rus)|Одноголосый закадровый, Ю.Живов|
Аудио #4: AC-3, 6 ch, 448 kbps (Eng)
Субтитры: русские, английские

Скриншоты

MI

Общее
Уникальный идентификатор : 243800106195468565526597604805768902926 (0xB76A3147761CE2B18D6E587B6683F90E)
Полное имя : Красная планета.2000.BDRip.1080p.Rus.Eng.mkv
Формат : Matroska
Версия формата : Version 2
Размер файла : 7,76 Гбайт
Продолжительность : 1 ч. 46 м.
Общий поток : 10,4 Мбит/сек
Название фильма : Красная планета.2000
Дата кодирования : UTC 2014-01-16 15:37:58
Программа кодирования : mkvmerge v5.8.0 ('No Sleep / Pillow') built on Sep 2 2012 15:37:04
Библиотека кодирования : libebml v1.2.3 + libmatroska v1.3.0
Видео
Идентификатор : 1
Формат : AVC
Формат/Информация : Advanced Video Codec
Профиль формата : High@L4.1
Параметр CABAC формата : Да
Параметр ReFrames формата : 5 кадров
Идентификатор кодека : V_MPEG4/ISO/AVC
Продолжительность : 1 ч. 46 м.
Битрейт : 8960 Кбит/сек
Ширина : 1920 пикселей
Высота : 800 пикселей
Соотношение сторон : 2,40:1
Режим частоты кадров : Постоянный
Частота кадров : 23,976 кадра/сек
Цветовое пространство : YUV
Субдискретизация насыщенности : 4:2:0
Битовая глубина : 8 бит
Тип развёртки : Прогрессивная
Бит/(Пиксели*Кадры) : 0.243
Размер потока : 6,51 Гбайт (84%)
Заголовок : Rip by Boriy
Библиотека кодирования : x264 core 140 r2377 1ca7bb9
Настройки программы : cabac=1 / ref=5 / deblock=1:-3:-3 / analyse=0x3:0x113 / me=umh / subme=11 / psy=1 / psy_rd=1.00:0.00 / mixed_ref=1 / me_range=32 / chroma_me=1 / trellis=2 / 8x8dct=1 / cqm=0 / deadzone=21,11 / fast_pskip=0 / chroma_qp_offset=-2 / threads=12 / lookahead_threads=1 / sliced_threads=0 / nr=0 / decimate=0 / interlaced=0 / bluray_compat=0 / constrained_intra=0 / bframes=6 / b_pyramid=2 / b_adapt=2 / b_bias=0 / direct=3 / weightb=1 / open_gop=0 / weightp=2 / keyint=240 / keyint_min=23 / scenecut=40 / intra_refresh=0 / rc=2pass / mbtree=0 / bitrate=8960 / ratetol=1.0 / qcomp=0.60 / qpmin=0 / qpmax=69 / qpstep=4 / cplxblur=20.0 / qblur=0.5 / ip_ratio=1.40 / pb_ratio=1.30 / aq=1:0.80
Язык : English
Default : Да
Forced : Нет
Аудио #1
Идентификатор : 2
Формат : AC-3
Формат/Информация : Audio Coding 3
Расширение режима : CM (complete main)
Параметр Endianness формата : Big
Идентификатор кодека : A_AC3
Продолжительность : 1 ч. 46 м.
Вид битрейта : Постоянный
Битрейт : 384 Кбит/сек
Каналы : 6 каналов
Расположение каналов : Front: L C R, Side: L R, LFE
Частота : 48,0 КГц
Битовая глубина : 16 бит
Метод сжатия : С потерями
Размер потока : 293 Мбайт (4%)
Заголовок : Дубляж, лицензия R5
Язык : Russian
Default : Да
Forced : Нет
Аудио #2
Идентификатор : 3
Формат : AC-3
Формат/Информация : Audio Coding 3
Расширение режима : CM (complete main)
Параметр Endianness формата : Big
Идентификатор кодека : A_AC3
Продолжительность : 1 ч. 46 м.
Вид битрейта : Постоянный
Битрейт : 192 Кбит/сек
Каналы : 2 канала
Расположение каналов : Front: L R
Частота : 48,0 КГц
Битовая глубина : 16 бит
Метод сжатия : С потерями
Размер потока : 146 Мбайт (2%)
Заголовок : Многоголосый закадровый, НТВ
Язык : Russian
Default : Нет
Forced : Нет
Аудио #3
Идентификатор : 4
Формат : AC-3
Формат/Информация : Audio Coding 3
Расширение режима : CM (complete main)
Параметр Endianness формата : Big
Идентификатор кодека : A_AC3
Продолжительность : 1 ч. 46 м.
Вид битрейта : Постоянный
Битрейт : 448 Кбит/сек
Каналы : 6 каналов
Расположение каналов : Front: L C R, Side: L R, LFE
Частота : 48,0 КГц
Битовая глубина : 16 бит
Метод сжатия : С потерями
Размер потока : 341 Мбайт (4%)
Заголовок : Одноголосый закадровый, Ю.Живов
Язык : Russian
Default : Нет
Forced : Нет
Аудио #4
Идентификатор : 5
Формат : AC-3
Формат/Информация : Audio Coding 3
Расширение режима : CM (complete main)
Параметр Endianness формата : Big
Идентификатор кодека : A_AC3
Продолжительность : 1 ч. 46 м.
Вид битрейта : Постоянный
Битрейт : 448 Кбит/сек
Каналы : 6 каналов
Расположение каналов : Front: L C R, Side: L R, LFE
Частота : 48,0 КГц
Битовая глубина : 16 бит
Метод сжатия : С потерями
Размер потока : 341 Мбайт (4%)
Заголовок : Оригинал
Язык : English
Default : Нет
Forced : Нет
Текст #1
Идентификатор : 6
Формат : UTF-8
Идентификатор кодека : S_TEXT/UTF8
Идентификатор кодека/Информация : UTF-8 Plain Text
Язык : Russian
Default : Нет
Forced : Нет
Текст #2
Идентификатор : 7
Формат : UTF-8
Идентификатор кодека : S_TEXT/UTF8
Идентификатор кодека/Информация : UTF-8 Plain Text
Язык : English
Default : Нет
Forced : Нет
Меню
00:00:00.000 : :Chapter 1
00:03:37.842 : :Chapter 2
00:06:21.422 : :Chapter 3
00:08:14.117 : :Chapter 4
00:10:42.098 : :Chapter 5
00:14:51.890 : :Chapter 6
00:18:35.531 : :Chapter 7
00:23:05.133 : :Chapter 8
00:26:15.614 : :Chapter 9
00:27:44.663 : :Chapter 10
00:31:12.579 : :Chapter 11
00:35:11.818 : :Chapter 12
00:39:45.632 : :Chapter 13
00:44:43.013 : :Chapter 14
00:49:30.926 : :Chapter 15
00:51:53.318 : :Chapter 16
00:55:38.376 : :Chapter 17
00:58:19.454 : :Chapter 18
01:02:37.336 : :Chapter 19
01:06:52.174 : :Chapter 20
01:08:39.657 : :Chapter 21
01:11:26.240 : :Chapter 22
01:13:33.575 : :Chapter 23
01:16:01.055 : :Chapter 24
01:19:40.024 : :Chapter 25
01:23:35.260 : :Chapter 26
01:27:26.991 : :Chapter 27
01:30:04.649 : :Chapter 28
01:34:50.975 : :Chapter 29
01:40:46.290 : :Chapter 30
01:42:18.715 : :Chapter 31
[Профиль] [ЛС]
Показать сообщения:    

Текущее время: Сегодня 16:25

Часовой пояс: GMT



Вы не можете начинать темы
Вы не можете отвечать на сообщения
Вы не можете редактировать свои сообщения
Вы не можете удалять свои сообщения
Вы не можете голосовать в опросах
Вы не можете прикреплять файлы к сообщениям
Вы не можете скачивать файлы