Красная армия / Red Army (Гейб Польски / Gabe Polsky) [2014, США, Россия, Документальный, биография, история, спорт, BDRip 720p] AVO (Ю.Сербин) + Sub Eng + Original Eng

 
Автор Сообщение

TorrentFilm ®

Пол:

Стаж: 2 года

Сообщений: 7741



Награды: Нет

Торрент-статистика

Создавать темы 20-Июл-2015 00:11

[Цитировать]

Красная армия / Red Army
Страна: США, Россия
Студия: Sony Classics, Utopia Pictures
Жанр: Документальный, биография, история, спорт
Год выпуска: 2014
Продолжительность: 01:24:56
Перевод: Авторский (одноголосый закадровый) Ю.Сербин
Cубтитры: английские
Оригинальная аудиодорожка: английский
Режиссер: Гейб Польски / Gabe Polsky
В ролях: Вячеслав Фетисов, Владислав Третьяк, Алексей Касатонов, Скотти Боуман, Марк Дикинс, Анатолий Карпов, Кен Кертис, Феликс Ничипор, Владимир Познер, Татьяна Тарасова
Описание: Фильм о Советском Союзе и самой успешной в истории спорта команде — хоккеистах сборной СССР. Рассказ о превращении из национального героя в политического врага ведётся с точки зрения Вячеслава Фетисова. Это повествование о том, как в спорте отразились социальные и культурные изменения в стране, о взлёте и падении национальной сборной по хоккею.

Тип релиза: BDRip 720p
Контейнер: MKV
Видео: MPEG-4 AVC, 6137 Кбит/с, 1280x720, 23,976 fps
Аудио: Rus, DTS, 1510 kb/s (6 ch), 48 kHz
Аудио 2: Eng, DTS, 1510 kb/s (6 ch), 48 kHz
Формат субтитров: softsub (SRT)

MediaInfo

Format : Matroska
Format version : Version 4 / Version 2
File size : 5.54 GiB
Duration : 1h 24mn
Overall bit rate : 9 341 Kbps
Movie name : Красная армия. (Tonik)
Encoded date : UTC 2015-07-15 04:06:26
Writing application : mkvmerge v7.1.0 ('Good Love') 64bit built on Jul 27 2014 13:06:55
Writing library : libebml v1.3.0 + libmatroska v1.4.1
_STATISTICS_WRITING_APP : mkvmerge v7.1.0 ('Good Love') 64bit built on Jul 27 2014 13:06:55
_STATISTICS_WRITING_DATE_UTC : 2015-07-15 04:06:26
_STATISTICS_TAGS : BPS DURATION NUMBER_OF_FRAMES NUMBER_OF_BYTES
DURATION : 01:24:56.118000000
NUMBER_OF_FRAMES : 477761
NUMBER_OF_BYTES : 961255552
Video
ID : 1
Format : AVC
Format/Info : Advanced Video Codec
Format profile : High@L4.1
Format settings, CABAC : Yes
Format settings, ReFrames : 9 frames
Codec ID : V_MPEG4/ISO/AVC
Duration : 1h 24mn
Bit rate : 6 137 Kbps
Width : 1 280 pixels
Height : 720 pixels
Display aspect ratio : 16:9
Frame rate mode : Constant
Frame rate : 23.976 fps
Color space : YUV
Chroma subsampling : 4:2:0
Bit depth : 8 bits
Scan type : Progressive
Bits/(Pixel*Frame) : 0.278
Stream size : 3.64 GiB (66%)
Writing library : x264 core 142 r2431+42 c69a006 tMod [8-bit@all X86_64]
Encoding settings : cabac=1 / ref=9 / deblock=1:-3:-3 / analyse=0x3:0x133 / me=umh / subme=10 / psy=1 / fade_compensate=0.00 / psy_rd=1.00:0.00 / mixed_ref=1 / me_range=24 / chroma_me=1 / trellis=2 / 8x8dct=1 / cqm=0 / deadzone=21,11 / fast_pskip=0 / chroma_qp_offset=-2 / threads=24 / lookahead_threads=4 / sliced_threads=0 / nr=0 / decimate=0 / interlaced=0 / bluray_compat=0 / constrained_intra=0 / fgo=0 / bframes=8 / b_pyramid=2 / b_adapt=2 / b_bias=0 / direct=3 / weightb=1 / open_gop=0 / weightp=2 / keyint=250 / keyint_min=23 / scenecut=40 / intra_refresh=0 / rc=crf / mbtree=0 / crf=16.5000 / qcomp=0.65 / qpmin=0:0:0 / qpmax=69:69:69 / qpstep=4 / ip_ratio=1.30 / pb_ratio=1.20 / aq=3:0.80 / aq-sensitivity=10.00 / aq-factor=1.00:1.00:1.00 / aq2=0 / aq3=0
Language : English
Default : Yes
Forced : No
_STATISTICS_WRITING_APP : mkvmerge v7.1.0 ('Good Love') 64bit built on Jul 27 2014 13:06:55
_STATISTICS_WRITING_DATE_UTC : 2015-07-15 04:06:26
_STATISTICS_TAGS : BPS DURATION NUMBER_OF_FRAMES NUMBER_OF_BYTES
DURATION : 01:24:56.050000000
NUMBER_OF_FRAMES : 122183
NUMBER_OF_BYTES : 4025594407
Audio #1
ID : 2
Format : DTS
Format/Info : Digital Theater Systems
Mode : 16
Format settings, Endianness : Big
Codec ID : A_DTS
Duration : 1h 24mn
Bit rate mode : Constant
Bit rate : 1 509 Kbps
Channel(s) : 6 channels
Channel positions : Front: L C R, Side: L R, LFE
Sampling rate : 48.0 KHz
Bit depth : 24 bits
Compression mode : Lossy
Stream size : 917 MiB (16%)
Title : Юрий Сербин
Language : Russian
Default : Yes
Forced : No
Audio #2
ID : 3
Format : DTS
Format/Info : Digital Theater Systems
Mode : 16
Format settings, Endianness : Big
Codec ID : A_DTS
Duration : 1h 24mn
Bit rate mode : Constant
Bit rate : 1 509 Kbps
Channel(s) : 6 channels
Channel positions : Front: L C R, Side: L R, LFE
Sampling rate : 48.0 KHz
Bit depth : 24 bits
Compression mode : Lossy
Stream size : 917 MiB (16%)
Language : English
Default : No
Forced : No
Text #1
ID : 4
Format : UTF-8
Codec ID : S_TEXT/UTF8
Codec ID/Info : UTF-8 Plain Text
Title : Forced
Language : English
Default : No
Forced : No
Text #2
ID : 5
Format : UTF-8
Codec ID : S_TEXT/UTF8
Codec ID/Info : UTF-8 Plain Text
Language : English
Default : No
Forced : No
Menu
00:00:00.000 : en:00:00:00.000
00:01:48.358 : en:00:01:48.358
00:06:22.757 : en:00:06:22.757
00:12:06.893 : en:00:12:06.893
00:16:54.597 : en:00:16:54.597
00:20:16.298 : en:00:20:16.298
00:24:01.815 : en:00:24:01.815
00:27:45.789 : en:00:27:45.789
00:34:18.223 : en:00:34:18.223
00:39:38.084 : en:00:39:38.084
00:48:22.191 : en:00:48:22.191
00:53:45.848 : en:00:53:45.848
00:59:52.297 : en:00:59:52.297
01:05:39.102 : en:01:05:39.102
01:09:36.631 : en:01:09:36.631
01:18:34.585 : en:01:18:34.585

Скриншоты

[Профиль] [ЛС]
Показать сообщения:    

Текущее время: Сегодня 22:24

Часовой пояс: GMT



Вы не можете начинать темы
Вы не можете отвечать на сообщения
Вы не можете редактировать свои сообщения
Вы не можете удалять свои сообщения
Вы не можете голосовать в опросах
Вы не можете прикреплять файлы к сообщениям
Вы не можете скачивать файлы