Красивый мальчик / Beautiful Boy (2018) WEBRip 720p | L2

 
Author Message

BOSS ®

Gender:

Longevity: 4 years 9 months

Posts: 14131

Location: ODESSA



: 22 ()

Mega Releaser 3 (1) Top Seeder 4 (1) Top Seeder 5 (1)
Торрент-статистика

Post 10-Jan-2019 19:58

[Quote]

Информация о фильме
Название: Красивый мальчик
Оригинальное название: Beautiful Boy
Год выхода: 2018
Жанр: Драма, биография
Режиссер: Феликс ван Грунинген
В ролях: Стив Карелл, Тимоти Шаламе, Мора Тирни, Кристиан Конвери, Окли Булл, Кейтлин Дивер, Эми Райан, Стефани Скотт, Джулиан Уоркс, Ке Лоуренс
О фильме:
Дэвид Шефф переживает трагедию: его милый и очаровательный сын Ник стал наркоманом. Откуда взялась пагубная привычка? Ник растёт в любящей семье, он отлично учится, ни в чём не нуждается. Развод родителей прошёл спокойно. С матерью, живущей в Лос-Анджелесе, Ник общается до сих пор. Пытаясь найти ответы, Дэвид вспоминает, каким ребёнок был раньше - вдумчивым и красивым мальчиком.

Страна: США, Amazon Studios, Big Indie Pictures, Plan B Entertainment
Продолжительность: 02:00:44
Перевод: Любительский (двухголосый закадровый) | HiWay Grope
Файл
Кодек: MPEG-4 AVC/x.264
Качество: WEBRip 720p
Видео: 1280x692, 23.976 fps, ~2991 kbps, 0.141 bit/pixel
Звук:
Аудио rus: AC3, 48 kHz, 2 ch, 192 Kbps
Субтитры: отсутствуют
Реклама: присутствует
Семпл

MediaInfo:

General
Unique ID : 147985702131605988622704698136500910701 (0x6F55026F17C7BC2760921C264F7C3A6D)
Complete name : D:Beautiful.Boy.2018.720p.WEBRip.HiWayGropeBeautiful.Boy.2018.720p.WEBRip.HiWayGrope.mkv
Format : Matroska
Format version : Version 4
File size : 2.69 GiB
Duration : 2 h 0 min
Overall bit rate mode : Variable
Overall bit rate : 3 185 kb/s
Encoded date : UTC 2019-01-10 04:00:06
Writing application : mkvmerge v25.0.0 ('Prog Noir') 64-bit
Writing library : libebml v1.3.6 + libmatroska v1.4.9
Video
ID : 1
Format : AVC
Format/Info : Advanced Video Codec
Format profile : High@L5
Format settings : CABAC / 4 Ref Frames
Format settings, CABAC : Yes
Format settings, RefFrames : 4 frames
Codec ID : V_MPEG4/ISO/AVC
Duration : 2 h 0 min
Bit rate mode : Variable
Bit rate : 2 991 kb/s
Maximum bit rate : 12.0 Mb/s
Width : 1 280 pixels
Height : 692 pixels
Display aspect ratio : 1.85:1
Frame rate mode : Constant
Frame rate : 23.976 (24000/1001) FPS
Standard : NTSC
Color space : YUV
Chroma subsampling : 4:2:0
Bit depth : 8 bits
Scan type : Progressive
Bits/(Pixel*Frame) : 0.141
Stream size : 2.52 GiB (94%)
Language : English
Default : Yes
Forced : No
Color range : Limited
Color primaries : BT.709
Transfer characteristics : BT.709
Matrix coefficients : BT.709
Audio
ID : 2
Format : AC-3
Format/Info : Audio Coding 3
Commercial name : Dolby Digital
Codec ID : A_AC3
Duration : 2 h 0 min
Bit rate mode : Constant
Bit rate : 192 kb/s
Channel(s) : 2 channels
Channel layout : L R
Sampling rate : 48.0 kHz
Frame rate : 31.250 FPS (1536 SPF)
Bit depth : 16 bits
Compression mode : Lossy
Stream size : 166 MiB (6%)
Language : Russian
Service kind : Complete Main
Default : Yes
Forced : No

Скриншоты

Релиз от: HiWay Grope
[Profile] [PM]
Display posts from previous:    

The time now is: Today 18:42

All times are GMT



You cannot post new topics in this forum
You cannot reply to topics in this forum
You cannot edit your posts in this forum
You cannot delete your posts in this forum
You cannot vote in polls in this forum
You cannot attach files in this forum
You cannot download files in this forum