Красивая жизнь [01-11 из 20] (2014) HDTVRip от Files-x

 
Автор Сообщение

sergej644 ®

Пол:

Стаж: 4 года 11 месяцев

Сообщений: 6046

Откуда: Soviet Union



Награды: Нет

Торрент-статистика

Создавать темы 05-Дек-2014 17:06

[Цитировать]

Информация о фильме
Название: Красивая жизнь
Год выхода: 2014
Жанр: Мелодрама
Режиссер: Александр Замятин
В ролях: Марина Митрофанова, Евгений Шириков, Кирилл Жандаров, Агата Муцениеце, Екатерина Дубакина, Любава Грешнова, Наталья Чернявская, Владислав Ветров, Мартиньш Вилсонс, Валерий Афанасьев, Елена Цыплакова, Владимир Стержаков, Алёна Яковлева, Татьяна Орлова, Алексей Фатеев, Александр Силаев, Андрей Лебедев, Анжелика Кошевая, Алёна Галлиардт, Андрей Аверьянов, Денис Ткачёв, Роман Курцын, Михаил Куряев, Игорь Скрипко, Дмитрий Гудочкин, Анастасия Исакова
О фильме: Москва, 1988 год. На дне рождения своей подруги Ирина - "студентка, комсомолка и просто красавица" - знакомится с Юрой. Молодые люди влюбляются друг в друга с первого взгляда. Однако на пути их романа встают бывшие друзья: подруга Иры – капризная дочь влиятельных родителей Жанна Верхоланцева - испытывает сильные чувства к Юре, а ее брат и лучший друг Юры Саша Верхоланцев пылает страстью к Ирине.Чтобы устранить соперника, Саша просит своего отца выслать Юру из Москвы. В итоге Юра попадает в Афганистан. А вскоре Жанна становится виновницей автомобильной аварии, в которой серьезно страдает мать Ирины.Единственный шанс спасти мать - найти деньги на сложную и опасную операцию. Однако собрать такую огромную сумму Ирине и ее отцу оказывается не под силу. У Ирины остается все меньше времени, а неприятности, проблемы и долги накапливаются как снежный ком. Сложным положением девушки решает воспользоваться оскорбленный отказом Саша...

Выпущено: Россия
Продолжительность: 11 x ~ 00:45:00
Перевод: Не требуется
Файл
Качество: HDTVRip
Видео: XviD, 720x400 (16:9), 25.000 fps, 1 491 Kbps (0.207 bit/pixel)
Аудио: AC-3, 48.0 KHz, 2 ch, 192 Kbps, CBR

Скриншоты

MediaInfo

General
Complete name : /Красивая.жизнь.2014.HDTVRip.RG.Russkie.serialy.&.Files-x/01.Красивая.жизнь.2014.HDTVRip.RG.Russkie.serialy.&.Files-x.avi
Format : AVI
Format/Info : Audio Video Interleave
File size : 550 MiB
Duration : 45mn 47s
Overall bit rate : 1 679 Kbps
Writing application : VirtualDubMod 1.5.10.3 | www.virtualdub-fr.org || (build 2550/release)
Writing library : VirtualDubMod build 2550/release
Video
ID : 0
Format : MPEG-4 Visual
Format profile : Advanced Simple@L5
Format settings, BVOP : 2
Format settings, QPel : No
Format settings, GMC : No warppoints
Format settings, Matrix : Custom
Codec ID : XVID
Codec ID/Hint : XviD
Duration : 45mn 47s
Source duration : 31mn 57s
Bit rate : 1 491 Kbps
Width : 720 pixels
Height : 400 pixels
Display aspect ratio : 16:9
Frame rate : 25.000 fps
Color space : YUV
Chroma subsampling : 4:2:0
Bit depth : 8 bits
Scan type : Progressive
Compression mode : Lossy
Bits/(Pixel*Frame) : 0.207
Stream size : 341 MiB (62%)
Writing library : XviD 73
Audio
ID : 1
Format : AC-3
Format/Info : Audio Coding 3
Mode extension : CM (complete main)
Format settings, Endianness : Big
Codec ID : 2000
Duration : 45mn 47s
Source duration : 31mn 58s
Bit rate mode : Constant
Bit rate : 192 Kbps
Channel(s) : 2 channels
Channel positions : Front: L R
Sampling rate : 48.0 KHz
Bit depth : 16 bits
Compression mode : Lossy
Stream size : 43.9 MiB (8%)
Alignment : Split accross interleaves
Interleave, duration : 40 ms (1.00 video frame)
Interleave, preload duration : 500 ms
Релиз от:
[Профиль] [ЛС]
Показать сообщения:    

Текущее время: Сегодня 15:39

Часовой пояс: GMT



Вы не можете начинать темы
Вы не можете отвечать на сообщения
Вы не можете редактировать свои сообщения
Вы не можете удалять свои сообщения
Вы не можете голосовать в опросах
Вы не можете прикреплять файлы к сообщениям
Вы не можете скачивать файлы