Красавица и чудовище / Beauty and the Beast (Билл Кондон / Bill Condon) [2017, США, мюзикл, фэнтези, мелодрама, семейный, BDRip 720p] Dub (iTunes) + Sub (rus, eng) + Original Eng

 
Author Message

AleksSin ®

Gender:

Longevity: 9 years 7 months

Posts: 222



: 4 ()

Mega Seeder 2 (1) Mega Seeder 4 (1) Mega Seeder 3 (1)
Торрент-статистика

Post 13-Jun-2017 20:32

[Quote]

Красавица и чудовище / Beauty and the Beast«Вы наш гость» Страна: США
Студия: Mandeville Films, Walt Disney Pictures
Жанр: мюзикл, фэнтези, мелодрама, семейный
Год выпуска: 2017
Продолжительность: 02:09:17
Перевод: Профессиональный (дублированный) iTunes
Субтитры: Русские, английские
Оригинальная аудиодорожка: английский
Режиссер: Билл Кондон / Bill Condon
В ролях: Эмма Уотсон, Дэн Стивенс, Люк Эванс, Джош Гад, Кевин Клайн, Хэтти Морахэн, Хейдн Гвин, Джерард Хоран, Рэй Фиарон, Юэн МакГрегор
Описание: Обозлённая Волшебница превратила принца Адама в отвратительное чудовище за то, что тот был злым, самовлюблённым и грубым. Чтобы снять чары с себя и слуг своего замка, ему необходимо научиться быть добрым, любить и быть любимым. Произойти это должно до того, как с розы, подаренной Волшебницей, упадёт последний лепесток. В далёкой деревушке живёт красивая девушка по имени Белль. Однажды её отец Морис отправляется на ярмарку, но по дороге сбивается с пути. Оказавшись в заколдованном замке, он становится пленником Чудовища. Белль спешит отцу на помощь.

Тип релиза: BDRip 720p
Контейнер: MKV
Видео: 1280x536 (2.40:1), 23.976 fps, MPEG-4 AVC ~ 4474 kbps avg, 0.272 bit/pixel
Аудио: (Русский) 48 kHz, AC3, 5.1, 384 Kbps | Дублированный | iTunes | | Дублированный, iTunes |
Аудио 2: (Английский) 48 kHz, AC3, 5.1, 640 Kbps | Оригинал | ENG
Формат субтитров: softsub (SRT)

MediaInfo

Log
x264 [info]: frame I:1958 Avg QP:15.12 size:110713
x264 [info]: frame P:42408 Avg QP:16.61 size: 45535
x264 [info]: frame B:141612 Avg QP:18.16 size: 16220
x264 [info]: consecutive B-frames: 2.4% 2.7% 10.8% 23.2% 20.8% 34.3% 4.1% 1.0% 0.7%
Общее
Уникальный идентификатор : 186590593952721498703709753923984204428 (0x8C600A8D9ECD6E41B07BD9BE24E0A28C)
Полное имя : S:\Фильмы\Красавица и чудовище. 2017. BDRip 720p. (AleksSin).mkv
Формат : Matroska
Версия формата : Version 2
Размер файла : 5,07 Гбайт
Продолжительность : 2 ч. 9 м.
Общий поток : 5610 Кбит/сек
Дата кодирования : UTC 2017-06-13 18:47:06
Программа кодирования : mkvmerge v7.8.0 ('River Man') 32bit built on Apr 3 2015 12:11:22
Библиотека кодирования : libebml v1.3.1 + libmatroska v1.4.2
Видео
Идентификатор : 1
Формат : AVC
Формат/Информация : Advanced Video Codec
Профиль формата : High@L4.1
Параметр CABAC формата : Да
Параметр ReFrames формата : 12 кадров
Идентификатор кодека : V_MPEG4/ISO/AVC
Продолжительность : 2 ч. 9 м.
Битрейт : 4474 Кбит/сек
Ширина : 1280 пикселей
Высота : 536 пикселей
Соотношение сторон : 2,40:1
Режим частоты кадров : Постоянный
Частота кадров : 23,976 кадра/сек
Цветовое пространство : YUV
Субдискретизация насыщенности : 4:2:0
Битовая глубина : 8 бит
Тип развёртки : Прогрессивная
Бит/(Пиксели*Кадры) : 0.272
Размер потока : 4,04 Гбайт (80%)
Библиотека кодирования : x264 core 148 r2705 3f5ed56
Настройки программы : cabac=1 / ref=12 / deblock=1:-3:-3 / analyse=0x3:0x133 / me=umh / subme=10 / psy=1 / psy_rd=1.05:0.00 / mixed_ref=1 / me_range=32 / chroma_me=1 / trellis=2 / 8x8dct=1 / cqm=0 / deadzone=21,11 / fast_pskip=0 / chroma_qp_offset=-1 / threads=12 / lookahead_threads=2 / sliced_threads=0 / nr=0 / decimate=1 / interlaced=0 / bluray_compat=0 / constrained_intra=0 / bframes=8 / b_pyramid=2 / b_adapt=2 / b_bias=0 / direct=3 / weightb=1 / open_gop=0 / weightp=2 / keyint=240 / keyint_min=23 / scenecut=40 / intra_refresh=0 / rc_lookahead=60 / rc=crf / mbtree=0 / crf=16.8 / qcomp=0.60 / qpmin=0 / qpmax=69 / qpstep=4 / vbv_maxrate=50000 / vbv_bufsize=62500 / crf_max=0.0 / nal_hrd=none / filler=0 / ip_ratio=1.30 / pb_ratio=1.20 / aq=3:0.85
Язык : English
Default : Да
Forced : Нет
Аудио #1
Идентификатор : 2
Формат : AC-3
Формат/Информация : Audio Coding 3
Расширение режима : CM (complete main)
Параметр Endianness формата : Big
Идентификатор кодека : A_AC3
Продолжительность : 2 ч. 9 м.
Вид битрейта : Постоянный
Битрейт : 384 Кбит/сек
Каналы : 6 каналов
Расположение каналов : Front: L C R, Side: L R, LFE
Частота : 48,0 КГц
Частота кадров : 31,250 кадров/сек (1536 spf)
Битовая глубина : 16 бит
Метод сжатия : С потерями
Размер потока : 355 Мбайт (7%)
Язык : Russian
Default : Да
Forced : Нет
Аудио #2
Идентификатор : 3
Формат : AC-3
Формат/Информация : Audio Coding 3
Расширение режима : CM (complete main)
Параметр Endianness формата : Big
Идентификатор кодека : A_AC3
Продолжительность : 2 ч. 9 м.
Вид битрейта : Постоянный
Битрейт : 640 Кбит/сек
Каналы : 6 каналов
Расположение каналов : Front: L C R, Side: L R, LFE
Частота : 48,0 КГц
Частота кадров : 31,250 кадров/сек (1536 spf)
Битовая глубина : 16 бит
Метод сжатия : С потерями
Размер потока : 592 Мбайт (11%)
Язык : English
Default : Нет
Forced : Нет
Текст #1
Идентификатор : 4
Формат : UTF-8
Идентификатор кодека : S_TEXT/UTF8
Идентификатор кодека/Информация : UTF-8 Plain Text
Язык : Russian
Default : Да
Forced : Нет
Текст #2
Идентификатор : 5
Формат : UTF-8
Идентификатор кодека : S_TEXT/UTF8
Идентификатор кодека/Информация : UTF-8 Plain Text
Язык : English
Default : Нет
Forced : Нет
Текст #3
Идентификатор : 6
Формат : UTF-8
Идентификатор кодека : S_TEXT/UTF8
Идентификатор кодека/Информация : UTF-8 Plain Text
Язык : English
Default : Нет
Forced : Нет
Текст #4
Идентификатор : 7
Формат : UTF-8
Идентификатор кодека : S_TEXT/UTF8
Идентификатор кодека/Информация : UTF-8 Plain Text
Язык : English
Default : Нет
Forced : Нет
Меню
00:00:00.000 : en:Once Upon A Time
00:04:36.276 : en:"Belle"
00:08:06.528 : en:Monsiour Gaston
00:11:18.261 : en:"How Does A Moment Last Forever" (Music Box)
00:15:21.546 : en:"Belle" (Reprise)
00:18:57.386 : en:Our Unwitting Host
00:25:05.921 : en:"Forever Can Spare A Minute"
00:31:41.566 : en:The East Wing
00:36:08.708 : en:"Gaston"
00:42:32.258 : en:Lonely
00:47:01.318 : en:"Be Our Guest"
00:54:44.990 : en:Saved By The Beast
01:00:43.557 : en:"Days In The Sun"
01:07:40.932 : en:"Something There"
01:14:38.224 : en:"How Does A Moment Last Forever" (Montmartre)
01:19:43.696 : en:Your Troubled Mind
01:22:02.751 : en:"Beauty And The Beast"
01:28:53.370 : en:"Evermore"
01:34:01.302 : en:"The Mob Song"
01:38:10.176 : en:"Attack!"
01:45:23.692 : en:"I Am Not A Beast"
01:49:13.964 : en:The Final Petal
01:55:54.197 : en:"Beauty And The Beast" (Finale)
01:58:49.497 : en:End Credits

Скриншоты

[Profile] [PM]
Display posts from previous:    

The time now is: Today 06:47

All times are GMT



You cannot post new topics in this forum
You cannot reply to topics in this forum
You cannot edit your posts in this forum
You cannot delete your posts in this forum
You cannot vote in polls in this forum
You cannot attach files in this forum
You cannot download files in this forum