Красавица из трущоб / Trishna (2011) BDRip 720p от ivandubskoj

 
Автор Сообщение

Russian Mafia ®

Пол:

Стаж: 1 год 8 месяцев

Сообщений: 4247



Награды: 10 (Подробнее)

Mega Seeder 5 (Количество: 1) Mega Seeder 4 (Количество: 1) Top Releaser 2 (Количество: 1)
Торрент-статистика

Создавать темы 28-Апр-2016 15:30

[Цитировать]

Информация о фильме
Название: Красавица из трущоб (Тришна)
Оригинальное название: Trishna
Год выхода: 2011
Жанр: Драма, экранизация
Режиссёр: Майкл Уинтерботтом
В ролях: Фрида Пинто, Риз Ахмед, Калки Коечлин, Анураг Кашьяп, Рошан Сет, Аакаш Дахиуа, Хэриш Ханна
О фильме:
Тришна - девушка из бедной деревни в современной Индии. История начинается с автомобильной аварии. Отец Тришны попал в больницу, нужны деньги. Из Англии как турист приезжает Джей — сын местного богача. Джей соблазняет Тришну и продолжает использовать как сексуальную игрушку и одновременно прислугу. Тришна надеется, что Джей изменится и снова будет ее любить. Она ему предана и не может вернуться домой.

Выпущено: Великобритания, Индия, Film i Väst, Head Gear Films, Metrol Technology, Revolution Films
Продолжительность: 01:53:20
Перевод: Профессиональный многоголосый (Selena International)
Оригинальная аудио-дорожка: Английская
Файл
Формат: MKV
Кодек: MPEG4-AVC
Качество: BDRip (720p) [Исходник: Blu-ray Remux (1080p)]
Видео: MPEG-4 AVC, 1280x544 (2.35:1), 4850 Кбит/с, 23.976 кадр/с, 0.291 bit/pixel
Аудио #1: Русский, Dolby AC3, 48000 Гц, 224 Кбит/с, 2 канала (Стерео) - MVO [Selena International]
Аудио #2: Английский, Dolby AC3, 48000 Гц, 448 Кбит/с, 6 каналов (5.1) - Оригинал
Субтитры: Русские (полные), английские (форсированные) SRT
Навигация по главам: Есть (Сохранены оригинальные чаптеры, как на Blu-ray)

MediaInfo

General
Unique ID : 206560285802066861647088850674354346925 (0x9B661060A60221CEAFF7725D12CDDBAD)
Complete name : Trishna.2011.BDRip.720p.mkv
Format : Matroska
Format version : Version 4 / Version 2
File size : 4.37 GiB
Duration : 1h 53mn
Overall bit rate : 5 521 Kbps
Movie name : Красавица из трущоб / Trishna (2011) BDRip (720p) от ivandubskoj
Encoded date : UTC 2016-04-28 11:43:29
Writing application : mkvmerge v8.9.0 ('Father Daughter') 64bit
Writing library : libebml v1.3.1 + libmatroska v1.4.2
Video
ID : 1
Format : AVC
Format/Info : Advanced Video Codec
Format profile : High@L4.1
Format settings, CABAC : Yes
Format settings, ReFrames : 10 frames
Codec ID : V_MPEG4/ISO/AVC
Duration : 1h 53mn
Bit rate : 4 850 Kbps
Width : 1 280 pixels
Height : 544 pixels
Display aspect ratio : 2.35:1
Frame rate mode : Constant
Frame rate : 23.976 fps
Color space : YUV
Chroma subsampling : 4:2:0
Bit depth : 8 bits
Scan type : Progressive
Bits/(Pixel*Frame) : 0.291
Stream size : 3.75 GiB (86%)
Title : Красавица из трущоб / Trishna (2011)
Writing library : x264 core 148 r2665kMod a01e339
Encoding settings : cabac=1 / ref=10 / deblock=1:-3:-3 / analyse=0x3:0x113 / me=umh / subme=11 / psy=1 / psy_rd=1.00:0.00 / mixed_ref=1 / me_range=48 / chroma_me=1 / trellis=2 / 8x8dct=1 / cqm=0 / deadzone=21,11 / fast_pskip=0 / chroma_qp_offset=-2 / threads=6 / lookahead_threads=1 / sliced_threads=0 / nr=0 / decimate=0 / interlaced=0 / bluray_compat=0 / constrained_intra=0 / bframes=8 / b_pyramid=2 / b_adapt=2 / b_bias=0 / direct=3 / weightb=1 / open_gop=0 / weightp=2 / keyint=240 / keyint_min=23 / scenecut=40 / intra_refresh=0 / rc_lookahead=40 / rc=2pass / mbtree=0 / bitrate=4850 / ratetol=1.0 / qcomp=0.60 / qpmin=0 / qpmax=69 / qpstep=4 / cplxblur=20.0 / qblur=0.5 / vbv_maxrate=50000 / vbv_bufsize=62500 / nal_hrd=none / filler=0 / ip_ratio=1.40 / pb_ratio=1.30 / aq=1:1.00
Language : English
Default : Yes
Forced : No
Audio #1
ID : 2
Format : AC-3
Format/Info : Audio Coding 3
Mode extension : CM (complete main)
Format settings, Endianness : Big
Codec ID : A_AC3
Duration : 1h 53mn
Bit rate mode : Constant
Bit rate : 224 Kbps
Channel(s) : 2 channels
Channel positions : Front: L R
Sampling rate : 48.0 KHz
Bit depth : 16 bits
Compression mode : Lossy
Stream size : 182 MiB (4%)
Title : MVO, R5 [Selena International]
Language : Russian
Default : Yes
Forced : No
Audio #2
ID : 3
Format : AC-3
Format/Info : Audio Coding 3
Mode extension : CM (complete main)
Format settings, Endianness : Big
Codec ID : A_AC3
Duration : 1h 53mn
Bit rate mode : Constant
Bit rate : 448 Kbps
Channel(s) : 6 channels
Channel positions : Front: L C R, Side: L R, LFE
Sampling rate : 48.0 KHz
Bit depth : 16 bits
Compression mode : Lossy
Stream size : 363 MiB (8%)
Title : Original
Language : English
Default : No
Forced : No
Text #1
ID : 4
Format : UTF-8
Codec ID : S_TEXT/UTF8
Codec ID/Info : UTF-8 Plain Text
Title : Full
Language : Russian
Default : No
Forced : No
Text #2
ID : 5
Format : UTF-8
Codec ID : S_TEXT/UTF8
Codec ID/Info : UTF-8 Plain Text
Title : Forced
Language : English
Default : No
Forced : No
Menu
00:00:00.000 : :Chapter 01
00:10:09.150 : :Chapter 02
00:16:52.386 : :Chapter 03
00:23:35.080 : :Chapter 04
00:29:16.755 : :Chapter 05
00:36:53.210 : :Chapter 06
00:45:02.616 : :Chapter 07
00:53:19.237 : :Chapter 08
01:00:23.036 : :Chapter 09
01:07:31.005 : :Chapter 10
01:13:38.288 : :Chapter 11
01:17:59.633 : :Chapter 12
01:26:53.791 : :Chapter 13
01:35:55.833 : :Chapter 14
01:44:07.491 : :Chapter 15
01:48:50.649 : :Chapter 16

Скриншоты



Автор рипа - ivandubskoj
[Профиль] [ЛС]
Показать сообщения:    

Текущее время: Сегодня 15:51

Часовой пояс: GMT



Вы не можете начинать темы
Вы не можете отвечать на сообщения
Вы не можете редактировать свои сообщения
Вы не можете удалять свои сообщения
Вы не можете голосовать в опросах
Вы не можете прикреплять файлы к сообщениям
Вы не можете скачивать файлы