Красавица-воин Сейлор Мун / Sailor Moon [TV+Movie+SP+AMV+OP&ED] (1992-1996) DVDRip

 
Автор Сообщение

Russian Mafia ®

Пол:

Стаж: 1 год 8 месяцев

Сообщений: 4247



Награды: 10 (Подробнее)

Mega Seeder 1 (Количество: 1) Mega Seeder 4 (Количество: 1) Top Releaser 5 (Количество: 1)
Торрент-статистика

Создавать темы 11-Май-2015 13:08

[Цитировать]

Красавица-воин Сейлор Мун / Sailor Moon

Красавица-воин Сейлор Мун / Сейлор Мун - Луна в Матроске / Bishoujo Senshi Sailor Moon (1992) - 1 сезон

Информация о фильме
Название: Красавица-воин Сейлор Мун / Сейлор Мун - Луна в Матроске
Оригинальное название: Sailor Moon / Bishoujo Senshi Sailor Moon / Pretty Soldier Sailor Moon / 美少女戦士セーラームーン
Страна: Япония
Год выхода: 1992
Жанр: приключения, комедия, махо-сёдзё, сёдзё
Режиссер: Сато Дзюнъити / Sato Junichi / 佐藤順一
О фильме: Современная Япония. Обычная японская школьница Цукино Усаги — перевоплощение жившей в глубокой древности девушки-воина Сейлор Мун, защитницы Лунного Королевства. Теперь, в наши дни, она и другие реинкарнации воинов Луны (Сейлор Меркурий, Сейлор Венера, Сейлор Марс и Сейлор Юпитер) снова должны сразиться со своими исконными врагами — правителями Тёмного Королевства. Попутно им необходимо найти Серенити, принцессу Лунного Королевства. В этом трудном деле деле девушкам помогают ещё два воина из прошлого — переродившиеся в кошек Луна и Артемис, а также перевоплощение принца древнего Земного Королевства Такседо Камен (‘Маска-во-фраке’) — студент Тиба Мамору, к которому Усаги неравнодушна.
Студия:
Продолжительность: ТВ (46 эп.), 25 мин.
Перевод: Профессиональный (многоголосый закадровый) | 2х2
Субтитры: русские (софтсаб, *srt) - полные: Vir@Apo Cogito-sPairing, 2008
Хардсаб: отсутствует
Файл
Качество: DVDRip [by rs.bandito]
Формат: AVI
Видео: 640 x 480 (4:3), 25 fps, XviD build 73 ~1700 kbps avg, 0.221 bit/pixel
Аудио #1: Rus: 48 kHz, AC3 Dolby Digital, 2/0 (L,R) ch, ~192 kbps | 2х2 |
Аудио #2: Jap: 48 kHz, AC3 Dolby Digital, 2/0 (L,R) ch, ~192 kbps | Оригинал |
Доп. информация:
Исходник - DVDRemux (Итальянское реставрированное издание)
Исходник предоставлен - Edzyowa
Звук дорожек 2х2 предоставили: drbars, ALEKS KV и chame1eon
Синхронизация дорожек - ALEKS KV
В раздаче присутствует бонус.


MediaInfoОбщее
Полное имя : 01 Sailor Moon / Sailor_Moon_s01_e01.avi
Формат : AVI
Формат/Информация : Audio Video Interleave
Размер файла : 362 Мбайт
Продолжительность : 24 м.
Общий поток : 2098 Кбит/сек
Программа кодирования : VirtualDubMod 1.5.10.3 | www.virtualdub-fr.org || (build 2550/release)
Библиотека кодирования : VirtualDubMod build 2550/release
Видео
Идентификатор : 0
Формат : MPEG-4 Visual
Профиль формата : Advanced Simple@L5
Параметр BVOP формата : 1
Параметр QPel формата : Нет
Параметр GMC формата : Без точки перехода
Параметр матрицы формата : Выборочная
Идентификатор кодека : XVID
Идентификатор кодека/Подсказка : XviD
Продолжительность : 24 м.
Битрейт : 1700 Кбит/сек
Ширина : 640 пикс.
Высота : 480 пикс.
Соотношение сторон : 4:3
Частота кадров : 25,000 кадр/сек
Цветовое пространство : YUV
Подвыборка цветности : 4:2:0
Битовая глубина : 8 бит
Тип развёртки : Прогрессивная
Метод сжатия : С потерями
Бит/(Пиксели*Кадры) : 0.221
Размер потока : 293 Мбайт (81%)
Библиотека кодирования : XviD 73
Аудио #1
Идентификатор : 1
Формат : AC-3
Формат/Информация : Audio Coding 3
Расширение режима : CM (complete main)
Идентификатор кодека : 2000
Продолжительность : 24 м.
Вид битрейта : Постоянный
Битрейт : 192 Кбит/сек
Канал(ы) : 2 канала(ов)
Расположение каналов : Front: L R
Частота : 48,0 КГц
Битовая глубина : 16 бит
Метод сжатия : С потерями
Размер потока : 33,1 Мбайт (9%)
Выравнивание : Разделение по промежуткам
Продолжительность промежутка : 40 мс. (1,00 видеокадр)
Время предзагрузки промежутка : 500 ms
Заголовок : Russian
Аудио #2
Идентификатор : 2
Формат : AC-3
Формат/Информация : Audio Coding 3
Расширение режима : CM (complete main)
Идентификатор кодека : 2000
Продолжительность : 24 м.
Вид битрейта : Постоянный
Битрейт : 192 Кбит/сек
Канал(ы) : 2 канала(ов)
Расположение каналов : Front: L R
Частота : 48,0 КГц
Битовая глубина : 16 бит
Метод сжатия : С потерями
Размер потока : 33,1 Мбайт (9%)
Выравнивание : Разделение по промежуткам
Продолжительность промежутка : 40 мс. (1,00 видеокадр)
Время предзагрузки промежутка : 500 ms
Заголовок : Japanese

Красавица-Воин Сейлор Мун Эр / Сейлор Мун снова с нами / Bishoujo Senshi Sailor Moon R (1993-1994) - 2 сезон

Информация о фильме
Название: Красавица-Воин Сейлор Мун Эр / Сейлор Мун снова с нами
Оригинальное название: Sailor Moon R / Bishoujo Senshi Sailor Moon R / Pretty Soldier Sailor Moon R / 美少女戦士セーラームーンR
Страна: Япония
Год выхода: 1993-1994
Жанр: приключения, комедия, махо-сёдзё, сёдзё
Режиссер: Сато Дзюнъити / Sato Junichi / 佐藤順一
О фильме: Нашему миру снова грозит опасность и опять требуется помощь воинов. Но после битвы на Северном полюсе они ничего не помнят и вернулись к обычной жизни, они даже не знают, что когда-то были знакомы. Но нет покоя защитникам земли. На Землю в районе Токио падает метеорит, а вместе с ним новые враги — Эйл и Анна. У пришельцев есть волшебные карты Таро, с помощью которых они освобождают демонов-кардьянов, а также Древо Мира Духов — разумное растение и предок их расы, последними представителями которой Анна и Эйл являются. Чтобы защитить жителей Токио, воинам приходится пробудиться от забвения. Однако против новых врагов у девочек не хватает сил, и тогда они получают новые жезлы и атаки, которые помогают им одолеть врага.
Однако история не окончена — на Усаги неожиданно сваливается «сестра» — вредная, и подозрительно похожая на неё девочка. Даже имя у неё такое-же, как у Усаги. Как выясняется, она ищет Серебряный Кристалл чтобы спасти своих мать и отца. Но она не единственная, кто ищет его. Воинам предстоит сразиться с Кланом Тёмной Луны дабы не дать разрушить город будущего — Кристальный Токио.

Студия:
Продолжительность: ТВ (43 эп.), 25 мин.
Перевод: Профессиональный (многоголосый закадровый) | 2х2
Субтитры: русские (софтсаб, *srt) - полные: ~Razdor~ (1—6 и 39—43), Юрий Яворовский (7—38)
Хардсаб: отсутствует
Файл
Качество: DVDRip [by rs.bandito]
Формат: AVI
Видео: 640 x 480 (4:3), 25 fps, XviD build 73 ~1700 kbps avg, 0.221 bit/pixel
Аудио #1: Rus: 48 kHz, AC3 Dolby Digital, 2/0 (L,R) ch, ~192 kbps | 2х2 |
Аудио #2: Jap: 48 kHz, AC3 Dolby Digital, 2/0 (L,R) ch, ~192 kbps | Оригинал |
Доп. информация:
Исходник - DVDRemux (Итальянское реставрированное издание)
Исходник предоставлен - Edzyowa
Звук дорожек 2х2 предоставили: drbars, ALEKS KV и chame1eon
Синхронизация дорожек - ALEKS KV
В раздаче присутствует бонус.


MediaInfoОбщее
Полное имя : 02 Sailor Moon R / Sailor_Moon_R_s02_e01_(47).avi
Формат : AVI
Формат/Информация : Audio Video Interleave
Размер файла : 362 Мбайт
Продолжительность : 24 м.
Общий поток : 2098 Кбит/сек
Программа кодирования : VirtualDubMod 1.5.10.2 (build 2540/release)
Библиотека кодирования : VirtualDubMod build 2540/release
Видео
Идентификатор : 0
Формат : MPEG-4 Visual
Профиль формата : Advanced Simple@L5
Параметр BVOP формата : 1
Параметр QPel формата : Нет
Параметр GMC формата : Без точки перехода
Параметр матрицы формата : Выборочная
Идентификатор кодека : XVID
Идентификатор кодека/Подсказка : XviD
Продолжительность : 24 м.
Битрейт : 1700 Кбит/сек
Ширина : 640 пикс.
Высота : 480 пикс.
Соотношение сторон : 4:3
Частота кадров : 25,000 кадр/сек
Цветовое пространство : YUV
Подвыборка цветности : 4:2:0
Битовая глубина : 8 бит
Тип развёртки : Прогрессивная
Метод сжатия : С потерями
Бит/(Пиксели*Кадры) : 0.221
Размер потока : 293 Мбайт (81%)
Библиотека кодирования : XviD 73
Аудио #1
Идентификатор : 1
Формат : AC-3
Формат/Информация : Audio Coding 3
Расширение режима : CM (complete main)
Идентификатор кодека : 2000
Продолжительность : 24 м.
Вид битрейта : Постоянный
Битрейт : 192 Кбит/сек
Канал(ы) : 2 канала(ов)
Расположение каналов : Front: L R
Частота : 48,0 КГц
Битовая глубина : 16 бит
Метод сжатия : С потерями
Размер потока : 33,1 Мбайт (9%)
Выравнивание : Разделение по промежуткам
Продолжительность промежутка : 40 мс. (1,00 видеокадр)
Время предзагрузки промежутка : 500 ms
Заголовок : Russian
Аудио #2
Идентификатор : 2
Формат : AC-3
Формат/Информация : Audio Coding 3
Расширение режима : CM (complete main)
Идентификатор кодека : 2000
Продолжительность : 24 м.
Вид битрейта : Постоянный
Битрейт : 192 Кбит/сек
Канал(ы) : 2 канала(ов)
Расположение каналов : Front: L R
Частота : 48,0 КГц
Битовая глубина : 16 бит
Метод сжатия : С потерями
Размер потока : 33,1 Мбайт (9%)
Выравнивание : Разделение по промежуткам
Продолжительность промежутка : 40 мс. (1,00 видеокадр)
Время предзагрузки промежутка : 500 ms
Заголовок : Japanese

Красавица-Воин Сейлор Мун Эс / Сейлор Мун Супервоин / Bishoujo Senshi Sailor Moon S (1994-1995) - 3 сезон

Информация о фильме
Название: Красавица-Воин Сейлор Мун Эс / Сейлор Мун Супервоин
Оригинальное название: Sailor Moon S / Bishoujo Senshi Sailor Moon S / Pretty Soldier Sailor Moon S / 美少女戦士セーラームーンS
Страна: Япония
Год выхода: 1994-1995
Жанр: приключения, комедия, махо-сёдзё, сёдзё
Режиссер: Икухара Кунихико / Ikuhara Kunihiko / 幾原邦彦
О фильме: У девочек появляются новые враги — таинственный профессор и его подручные, Каоринайт и компания «Ведьмы Пять», которые собирают чистые сердца для возрождения Мессии Безмолвия (в русском варианте — «Мессия Тьмы»). Профессор создаёт демонов, вселяющихся в обычные предметы и охотящихся за чистыми людскими сердцами дабы явить миру Святой Грааль. Но на пути их встают два таинственных воина, чьи мотивы не известны. Кто они, и почему тоже ищут Святой Грааль? Как остановить пришествие в этот мир Фараона 90? Ответ на это знает только последний воин, Сейлор Сатурн, воин разрушения, чья сила способна уничтожать целые планеты. Но проснётся она не раньше, чем будут собраны все три талисмана, и явится Святой Грааль.
Студия:
Продолжительность: ТВ (38 эп.), 25 мин.
Перевод: Профессиональный (многоголосый закадровый) | 2х2
Субтитры: русские (софтсаб, *srt) - полные: Юрий Яворовский (приведены в соответствие с системой Поливанова)
Хардсаб: отсутствует
Файл
Качество: DVDRip [by rs.bandito]
Формат: AVI
Видео: 640 x 480 (4:3), 25 fps, XviD build 73 ~1700 kbps avg, 0.221 bit/pixel
Аудио #1: Rus: 48 kHz, AC3 Dolby Digital, 2/0 (L,R) ch, ~192 kbps | 2х2 |
Аудио #2: Jap: 48 kHz, AC3 Dolby Digital, 2/0 (L,R) ch, ~192 kbps | Оригинал |
Доп. информация:
Исходник - DVDRemux (Итальянское реставрированное издание)
Исходник предоставлен - Edzyowa
Звук дорожек 2х2 предоставили: drbars, ALEKS KV и chame1eon
Синхронизация дорожек - ALEKS KV


MediaInfoОбщее
Полное имя : 03 Sailor Moon S / Sailor_Moon_S_s03_e01_(90).avi
Формат : AVI
Формат/Информация : Audio Video Interleave
Размер файла : 362 Мбайт
Продолжительность : 24 м.
Общий поток : 2098 Кбит/сек
Программа кодирования : VirtualDubMod 1.5.10.3 | www.virtualdub-fr.org || (build 2550/release)
Библиотека кодирования : VirtualDubMod build 2550/release
Видео
Идентификатор : 0
Формат : MPEG-4 Visual
Профиль формата : Advanced Simple@L5
Параметр BVOP формата : 1
Параметр QPel формата : Нет
Параметр GMC формата : Без точки перехода
Параметр матрицы формата : Выборочная
Идентификатор кодека : XVID
Идентификатор кодека/Подсказка : XviD
Продолжительность : 24 м.
Битрейт : 1700 Кбит/сек
Ширина : 640 пикс.
Высота : 480 пикс.
Соотношение сторон : 4:3
Частота кадров : 25,000 кадр/сек
Цветовое пространство : YUV
Подвыборка цветности : 4:2:0
Битовая глубина : 8 бит
Тип развёртки : Прогрессивная
Метод сжатия : С потерями
Бит/(Пиксели*Кадры) : 0.221
Размер потока : 293 Мбайт (81%)
Библиотека кодирования : XviD 73
Аудио #1
Идентификатор : 1
Формат : AC-3
Формат/Информация : Audio Coding 3
Расширение режима : CM (complete main)
Идентификатор кодека : 2000
Продолжительность : 24 м.
Вид битрейта : Постоянный
Битрейт : 192 Кбит/сек
Канал(ы) : 2 канала(ов)
Расположение каналов : Front: L R
Частота : 48,0 КГц
Битовая глубина : 16 бит
Метод сжатия : С потерями
Размер потока : 33,1 Мбайт (9%)
Выравнивание : Разделение по промежуткам
Продолжительность промежутка : 40 мс. (1,00 видеокадр)
Время предзагрузки промежутка : 500 ms
Заголовок : Russian
Аудио #2
Идентификатор : 2
Формат : AC-3
Формат/Информация : Audio Coding 3
Расширение режима : CM (complete main)
Идентификатор кодека : 2000
Продолжительность : 24 м.
Вид битрейта : Постоянный
Битрейт : 192 Кбит/сек
Канал(ы) : 2 канала(ов)
Расположение каналов : Front: L R
Частота : 48,0 КГц
Битовая глубина : 16 бит
Метод сжатия : С потерями
Размер потока : 33,1 Мбайт (9%)
Выравнивание : Разделение по промежуткам
Продолжительность промежутка : 40 мс. (1,00 видеокадр)
Время предзагрузки промежутка : 500 ms
Заголовок : Japanese

Красавица-воин Сейлор Мун Супер Эс / Bishoujo Senshi Sailor Moon Super S (1995-1996) - 4 сезон

Информация о фильме
Название: Красавица-воин Сейлор Мун Супер Эс
Оригинальное название: Sailor Moon Super S / Bishoujo Senshi Sailor Moon Super S / Pretty Soldier Sailor Moon Super S / 美少女戦士セーラームーンSuperS
Страна: Япония
Год выхода: 1995-1996
Жанр: приключения, комедия, махо-сёдзё, сёдзё
Режиссер: Икухара Кунихико / Ikuhara Kunihiko / 幾原邦彦
О фильме: Солнечное затмение, которое происходит раз в сто лет, завораживает жителей Токио, и никто не замечает, как в город проникает новый враг. В городе появляется таинственный цирк Мёртвой Луны, который только на первый взгляд ничем не выделяется из остальных. На самом же деле в этом цирке располагается логово ведьмы Цирконии и её подчинённых: Рыбьего Глаза, Соколиного Глаза и Тигриного Глаза. Они охотятся за прекрасными мечтами людей, которые помогли бы им выследить легендарного Пегаса. Смогут ли воины в матросках противостоять новому врагу и спасти Пегаса?
Студия:
Продолжительность: ТВ (39 эп.), 25 мин.
Перевод: Профессиональный (многоголосый закадровый) | ТНТ
Субтитры: русские (софтсаб, *srt) - полные: AlexMalkavian (приведены в соответствие с системой Поливанова)
Хардсаб: отсутствует
Файл
Качество: DVDRip [by rs.bandito]
Формат: AVI
Видео: 640 x 480 (4:3), 25 fps, XviD build 73 ~1700 kbps avg, 0.221 bit/pixel
Аудио #1: Rus: 48 kHz, MPEG Layer 3, 2 ch, ~192.00 kbps avg | ТНТ |
Аудио #2: Jap: 48 kHz, AC3 Dolby Digital, 2/0 (L,R) ch, ~192 kbps | Оригинал |
Доп. информация:
Исходник - DVDRemux (Итальянское реставрированное издание)
Исходник предоставлен - Edzyowa
Звук дорожек ТНТ предоставил: Yurasyk
Синхронизация дорожек - BAXTOR5 & Miheleniya


MediaInfoОбщее
Полное имя : 04 Sailor Moon Super S / Sailor_Moon_Super_S_s04_e01_(128).avi
Формат : AVI
Формат/Информация : Audio Video Interleave
Размер файла : 359 Мбайт
Продолжительность : 23 м.
Общий поток : 2099 Кбит/сек
Программа кодирования : VirtualDubMod 1.5.10.2 (build 2540/release)
Библиотека кодирования : VirtualDubMod build 2540/release
Видео
Идентификатор : 0
Формат : MPEG-4 Visual
Профиль формата : Advanced Simple@L5
Параметр BVOP формата : 1
Параметр QPel формата : Нет
Параметр GMC формата : Без точки перехода
Параметр матрицы формата : Выборочная
Идентификатор кодека : XVID
Идентификатор кодека/Подсказка : XviD
Продолжительность : 23 м.
Битрейт : 1701 Кбит/сек
Ширина : 640 пикс.
Высота : 480 пикс.
Соотношение сторон : 4:3
Частота кадров : 25,000 кадр/сек
Цветовое пространство : YUV
Подвыборка цветности : 4:2:0
Битовая глубина : 8 бит
Тип развёртки : Прогрессивная
Метод сжатия : С потерями
Бит/(Пиксели*Кадры) : 0.221
Размер потока : 290 Мбайт (81%)
Библиотека кодирования : XviD 73
Аудио #1
Идентификатор : 1
Формат : MPEG Audio
Идентификатор кодека : 55
Идентификатор кодека/Подсказка : MP3
Продолжительность : 23 м.
Битрейт : 192 Кбит/сек
Канал(ы) : 2 канала(ов)
Частота : 48,0 КГц
Метод сжатия : С потерями
Размер потока : 32,8 Мбайт (9%)
Выравнивание : Разделение по промежуткам
Продолжительность промежутка : 40 мс. (1,00 видеокадр)
Время предзагрузки промежутка : 504 ms
Заголовок : Russian
Аудио #2
Идентификатор : 2
Формат : AC-3
Формат/Информация : Audio Coding 3
Расширение режима : CM (complete main)
Идентификатор кодека : 2000
Продолжительность : 23 м.
Вид битрейта : Постоянный
Битрейт : 192 Кбит/сек
Канал(ы) : 2 канала(ов)
Расположение каналов : Front: L R
Частота : 48,0 КГц
Битовая глубина : 16 бит
Метод сжатия : С потерями
Размер потока : 32,8 Мбайт (9%)
Выравнивание : Разделение по промежуткам
Продолжительность промежутка : 40 мс. (1,00 видеокадр)
Время предзагрузки промежутка : 500 ms
Заголовок : Japanese

Красавица-воин Сейлор Мун: Сейлор-звезды / Bishoujo Senshi Sailor Moon Sailor Stars (1996-1997) - 5 сезон

Информация о фильме
Название: Красавица-воин Сейлор Мун: Сейлор-звезды
Оригинальное название: Sailor Moon Sailor Stars / Bishoujo Senshi Sailor Moon Sailor Stars / Pretty Soldier Sailor Moon Sailor Stars / 美少女戦士セーラームーン セーラースターズ
Страна: Япония
Год выхода: 1996-1997
Жанр: приключения, комедия, махо-сёдзё, сёдзё
Режиссер: Игараси Такуя / Igarashi Takuya / 五十嵐卓哉
О фильме: В начале сезона выясняется, что предыдущие враги не погибли полностью и необходимо закончить начатое. Вскоре на планету прибывает трое воинов — Сейлор воинов из другой системы. Они ищут свою принцессу, бежавшую с их родного мира, захваченного Галаксией, разыскивающей звёздные семена и новой целью выбравшей Землю и её защитников.
Студия:
Продолжительность: ТВ (34 эп.), 25 мин
Перевод: Профессиональный (многоголосый закадровый) | ТНТ
Субтитры: русские (софтсаб, *srt) - полные: AlexMalkavian, Cheb, Ze_us (подправлены Liandri)
Хардсаб: отсутствует
Файл
Качество: DVDRip [by rs.bandito]
Формат: AVI
Видео: 640 x 480 (4:3), 25 fps, XviD build 73 ~1700 kbps avg, 0.221 bit/pixel
Аудио #1: 48 kHz, MPEG Layer 3, 2 ch, ~192.00 kbps avg | ТНТ |
Аудио #2: 48 kHz, AC3 Dolby Digital, 2/0 (L,R) ch, ~192 kbps | Оригинал |
Доп. информация:
Исходник - DVDRemux (Итальянское реставрированное издание)
Исходник предоставлен - Edzyowa
Звук дорожек ТНТ предоставил: Yurasyk
Синхронизация дорожек - BAXTOR5 & Miheleniya


MediaInfoОбщее
Полное имя : 05 Sailor Moon Sailor Stars / Sailor_Moon_Sailor_Stars_s05_e01_(167).avi
Формат : AVI
Формат/Информация : Audio Video Interleave
Размер файла : 358 Мбайт
Продолжительность : 23 м.
Общий поток : 2098 Кбит/сек
Программа кодирования : VirtualDubMod 1.5.10.3 | www.virtualdub-fr.org || (build 2550/release)
Библиотека кодирования : VirtualDubMod build 2550/release
Видео
Идентификатор : 0
Формат : MPEG-4 Visual
Профиль формата : Advanced Simple@L5
Параметр BVOP формата : 1
Параметр QPel формата : Нет
Параметр GMC формата : Без точки перехода
Параметр матрицы формата : Выборочная
Идентификатор кодека : XVID
Идентификатор кодека/Подсказка : XviD
Продолжительность : 23 м.
Битрейт : 1700 Кбит/сек
Ширина : 640 пикс.
Высота : 480 пикс.
Соотношение сторон : 4:3
Частота кадров : 25,000 кадр/сек
Цветовое пространство : YUV
Подвыборка цветности : 4:2:0
Битовая глубина : 8 бит
Тип развёртки : Прогрессивная
Метод сжатия : С потерями
Бит/(Пиксели*Кадры) : 0.221
Размер потока : 290 Мбайт (81%)
Библиотека кодирования : XviD 73
Аудио #1
Идентификатор : 1
Формат : MPEG Audio
Версия формата : Version 1
Профиль формата : Layer 3
Режим : Joint stereo
Идентификатор кодека : 55
Идентификатор кодека/Подсказка : MP3
Продолжительность : 23 м.
Вид битрейта : Постоянный
Битрейт : 192 Кбит/сек
Канал(ы) : 2 канала(ов)
Частота : 48,0 КГц
Метод сжатия : С потерями
Задержка видео : 480 мс.
Размер потока : 32,8 Мбайт (9%)
Выравнивание : Соединение по промежуткам
Продолжительность промежутка : 40 мс. (1,00 видеокадр)
Время предзагрузки промежутка : 504 ms
Заголовок : Russian
Аудио #2
Идентификатор : 2
Формат : AC-3
Формат/Информация : Audio Coding 3
Расширение режима : CM (complete main)
Идентификатор кодека : 2000
Продолжительность : 23 м.
Вид битрейта : Постоянный
Битрейт : 192 Кбит/сек
Канал(ы) : 2 канала(ов)
Расположение каналов : Front: L R
Частота : 48,0 КГц
Битовая глубина : 16 бит
Метод сжатия : С потерями
Размер потока : 32,8 Мбайт (9%)
Выравнивание : Разделение по промежуткам
Продолжительность промежутка : 40 мс. (1,00 видеокадр)
Время предзагрузки промежутка : 500 ms
Заголовок : Japanese

Красавица-воин Сейлор Мун Эр — Фильм / Сейлор Мун Эр: Фильм — Опасные цветы / Bishoujo Senshi Sailor Moon R (1993) - фильм

Информация о фильме
Название: Красавица-воин Сейлор Мун Эр — Фильм / Сейлор Мун Эр: Фильм — Опасные цветы
Оригинальное название: Sailor Moon R Movie: Promise of the Rose / Bishoujo Senshi Sailor Moon R / 美少女戦士セーラームーンR
Страна: Япония
Год выхода: 1993
Жанр: приключения, романтика, махо-сёдзё, сёдзё
Режиссер: Икухара Кунихико / Ikuhara Kunihiko / 幾原邦彦
О фильме: Сейлор Мун, её четыре подруги по сражениям (Меркурий, Венера, Марс и Юпитер) и Такседо Маск спасают планету от очередного опасного создания вселенной — Ксенианского Цветка. Это только на первый взгляд красивый безобидный цветок. Ксениан перемещается по вселенной, уничтожая планеты на своём пути, поглощая их энергию. И вот целый астероид этих цветов направляется к Земле, и одним из носителей цветка стал Фьёре, друг детства Мамору.
Спасёт ли на этот раз Землю магия Серебряного Кристалла? Хватит ли у Сейлор Мун мужества защитить Землю, дружбу и любовь?

Студия:
Продолжительность: полнометражный фильм, 60 мин.
Перевод: Любительский (двухголосый)
Авторский (одноголосый закадровый) | Визгунов (внешним файлом)
Субтитры: русские (софтсаб, *srt) - полные: Edzyowa
Хардсаб: отсутствует
Файл
Качество: DVDRip [by rs.bandito]
Формат: AVI
Видео: 704 x 400 (16:9), 25 fps, XviD build 73 ~2155 kbps avg, 0.306 bit/pixel
Аудио #1: Rus: 48 kHz, AC3 Dolby Digital, 2/0 (L,R) ch, ~192 kbps | Любительский (двухголосый) |
Аудио #2: Jap: 48 kHz, AC3 Dolby Digital, 2/0 (L,R) ch, ~192 kbps | Оригинал |
Аудио #3: Rus: 48 kHz, AC3 Dolby Digital, 2/0 (L,R) ch, ~192 kbps | Визгунов | (отдельно)
Доп. информация:
Исходник - DVDRemux (Итальянское реставрированное издание)
Исходник предоставлен - Edzyowa
Предоставление исходника и очистка дорожки Визгунова - ALEKS KV
Синхронизация дорожек - Edzyowa


MediaInfoОбщее
Полное имя : Sailor Moon R The Movie / Sailor_Moon_R_The_Movie_-_Promise_of_the_Rose_DVDRip.avi
Формат : AVI
Формат/Информация : Audio Video Interleave
Размер файла : 1,09 Гбайт
Продолжительность : 1 ч. 0 м.
Общий поток : 2553 Кбит/сек
Программа кодирования : VirtualDubMod 1.5.10.3 | www.virtualdub-fr.org || (build 2550/release)
Библиотека кодирования : VirtualDubMod build 2550/release
Видео
Идентификатор : 0
Формат : MPEG-4 Visual
Профиль формата : Advanced Simple@L5
Параметр BVOP формата : 1
Параметр QPel формата : Нет
Параметр GMC формата : Без точки перехода
Параметр матрицы формата : Выборочная
Идентификатор кодека : XVID
Идентификатор кодека/Подсказка : XviD
Продолжительность : 1 ч. 0 м.
Битрейт : 2155 Кбит/сек
Ширина : 704 пикс.
Высота : 400 пикс.
Соотношение сторон : 16:9
Частота кадров : 25,000 кадр/сек
Цветовое пространство : YUV
Подвыборка цветности : 4:2:0
Битовая глубина : 8 бит
Тип развёртки : Прогрессивная
Метод сжатия : С потерями
Бит/(Пиксели*Кадры) : 0.306
Размер потока : 938 Мбайт (84%)
Библиотека кодирования : XviD 73
Аудио #1
Идентификатор : 1
Формат : AC-3
Формат/Информация : Audio Coding 3
Расширение режима : CM (complete main)
Идентификатор кодека : 2000
Продолжительность : 1 ч. 0 м.
Вид битрейта : Постоянный
Битрейт : 192 Кбит/сек
Канал(ы) : 2 канала(ов)
Расположение каналов : Front: L R
Частота : 48,0 КГц
Битовая глубина : 16 бит
Метод сжатия : С потерями
Размер потока : 83,6 Мбайт (8%)
Выравнивание : Разделение по промежуткам
Продолжительность промежутка : 40 мс. (1,00 видеокадр)
Время предзагрузки промежутка : 500 ms
Заголовок : Russian
Аудио #2
Идентификатор : 2
Формат : AC-3
Формат/Информация : Audio Coding 3
Расширение режима : CM (complete main)
Идентификатор кодека : 2000
Продолжительность : 1 ч. 0 м.
Вид битрейта : Постоянный
Битрейт : 192 Кбит/сек
Канал(ы) : 2 канала(ов)
Расположение каналов : Front: L R
Частота : 48,0 КГц
Битовая глубина : 16 бит
Метод сжатия : С потерями
Размер потока : 83,6 Мбайт (8%)
Выравнивание : Разделение по промежуткам
Продолжительность промежутка : 40 мс. (1,00 видеокадр)
Время предзагрузки промежутка : 500 ms
Заголовок : Japanese

Красавица-воин Сейлор Мун Эр (спэшл) / Sailor Moon R: Make Up! Sailor Senshi! (1993) - спэшл

Информация о фильме
Название: Красавица-воин Сейлор Мун Эр (спэшл)
Оригинальное название: Sailor Moon R: Make Up! Sailor Senshi! / Make-Up! Sailor Soldier / メイクアップ! セーラー戦士
Страна: Япония
Год выхода: 1993
Жанр: комедия, махо-сёдзё, сёдзё
Режиссер: Косака Харумэ / Kosaka Harume / 小坂春女
О фильме: Короткометражный фильм, дополнение к фильму Sailor Moon R The Movie - Promise of the Rose [1993]
Этот короткий эпизод изначально предшествовал полнометражке Sailor Moon R при показе в кинотеатрах.
Усаги и Чибиуса сидели в кафе, когда случайно услышали, что сидящие за соседним столиком девушки обсуждают Сейлор Воительниц. Эта дискуссия выглядит как обзор серий первого сезона и раскрытие характеров главных персонажей.

Студия:
Продолжительность: короткометражный фильм, 17 мин.
Перевод: Любительский (одноголосый)
Субтитры: русские (софтсаб, *srt) - полные: Edzyowa; полные, без песен: Ze_us; одни песни: Edzyowa
Хардсаб: отсутствует
Файл
Качество: DVDRip [by rs.bandito]
Формат: AVI
Видео: 704 x 400 (16:9), 25 fps, XviD build 73 ~1705 kbps avg, 0.242 bit/pixel
Аудио #1: Rus: 48 kHz, MPEG Layer 3, 2 ch, ~192.00 kbps avg | Любительский (одноголосый) |
Аудио #2: Jap: 48 kHz, AC3 Dolby Digital, 2/0 (L,R) ch, ~192 kbps | Оригинал |
Аудио #3: Jap: 48 kHz, AC3 Dolby Digital, 2/0 (L,R) ch, ~384 kbps | минусовка (присутствуют все звуки, кроме голосов) | (отдельно)
Доп. информация:
Исходник - DVDRemux (Итальянское реставрированное издание)
Исходник предоставлен - Edzyowa
Синхронизация дорожек - Edzyowa
Субтитры на песни - для просмотра с аудиодорожкой-минусовкой


MediaInfoОбщее
Полное имя : Sailor Moon R Special - Make Up! Sailor Senshi! / Sailor_Moon_R_Special_-_Make_Up!_Sailor_Senshi!.avi
Формат : AVI
Формат/Информация : Audio Video Interleave
Размер файла : 249 Мбайт
Продолжительность : 16 м.
Общий поток : 2103 Кбит/сек
Программа кодирования : VirtualDubMod 1.5.10.2 (build 2540/release)
Библиотека кодирования : VirtualDubMod build 2540/release
Видео
Идентификатор : 0
Формат : MPEG-4 Visual
Профиль формата : Advanced Simple@L5
Параметр BVOP формата : 1
Параметр QPel формата : Нет
Параметр GMC формата : Без точки перехода
Параметр матрицы формата : Выборочная
Идентификатор кодека : XVID
Идентификатор кодека/Подсказка : XviD
Продолжительность : 16 м.
Битрейт : 1705 Кбит/сек
Ширина : 704 пикс.
Высота : 400 пикс.
Соотношение сторон : 16:9
Частота кадров : 25,000 кадр/сек
Цветовое пространство : YUV
Подвыборка цветности : 4:2:0
Битовая глубина : 8 бит
Тип развёртки : Прогрессивная
Метод сжатия : С потерями
Бит/(Пиксели*Кадры) : 0.242
Размер потока : 202 Мбайт (81%)
Библиотека кодирования : XviD 73
Аудио #1
Идентификатор : 1
Формат : MPEG Audio
Версия формата : Version 1
Профиль формата : Layer 3
Режим : Joint stereo
Идентификатор кодека : 55
Идентификатор кодека/Подсказка : MP3
Продолжительность : 16 м.
Вид битрейта : Постоянный
Битрейт : 192 Кбит/сек
Канал(ы) : 2 канала(ов)
Частота : 48,0 КГц
Метод сжатия : С потерями
Размер потока : 22,7 Мбайт (9%)
Выравнивание : Соединение по промежуткам
Продолжительность промежутка : 40 мс. (1,00 видеокадр)
Время предзагрузки промежутка : 504 ms
Заголовок : Russian
Аудио #2
Идентификатор : 2
Формат : AC-3
Формат/Информация : Audio Coding 3
Расширение режима : CM (complete main)
Идентификатор кодека : 2000
Продолжительность : 16 м.
Вид битрейта : Постоянный
Битрейт : 192 Кбит/сек
Канал(ы) : 2 канала(ов)
Расположение каналов : Front: L R
Частота : 48,0 КГц
Битовая глубина : 16 бит
Метод сжатия : С потерями
Размер потока : 22,7 Мбайт (9%)
Выравнивание : Разделение по промежуткам
Продолжительность промежутка : 40 мс. (1,00 видеокадр)
Время предзагрузки промежутка : 500 ms
Заголовок : Japanese

Красавица-воин Сейлор Мун Эс - Фильм / Сейлор Мун Эс: Фильм — Снежная принцесса Кагуя / Bishoujo Senshi Sailor Moon S: Kaguya Hime no Koibito (1994) - фильм

Информация о фильме
Название: Красавица-воин Сейлор Мун Эс - Фильм / Сейлор Мун Эс: Фильм — Снежная принцесса Кагуя
Оригинальное название: Sailor Moon S Movie: Hearts in Ice / Bishoujo Senshi Sailor Moon S: Kaguya Hime no Koibito / 美少女戦士セーラームーンS かぐや姫の恋人
Страна: Япония
Год выхода: 1994
Жанр: махо-сёдзё, приключения, романтика, сёдзё
Режиссер: Икухара Кунихико / Ikuhara Kunihiko / 幾原邦彦
О фильме: К Земле стремительно приближается комета. На ней летит Снежная Принцесса Кагуя, которая хочет заморозить Землю для своей коллекции. Для этого ей нужен её Кристалл, когда-то упавший на Землю. Она посылает Снежных Балерин-демонов на поиски, но Сейлор Мун встаёт на защиту Земли...
Студия:
Продолжительность: полнометражный фильм, 60 мин.
Перевод: Любительский (двухголосый)
Субтитры: русские (софтсаб, *srt) - полные: Ze_us
Хардсаб: отсутствует
Файл
Качество: DVDRip [by rs.bandito]
Формат: AVI
Видео: 704 x 400 (16:9), 25 fps, XviD build 73 ~2151 kbps avg, 0.306 bit/pixel
Аудио #1: Rus: 48 kHz, AC3 Dolby Digital, 2/0 (L,R) ch, ~192 kbps | Любительский (двухголосый) |
Аудио #2: Jap: 48 kHz, AC3 Dolby Digital, 2/0 (L,R) ch, ~192 kbps | Оригинал |
Доп. информация:
Исходник - DVDRemux (Итальянское реставрированное издание)
Исходник предоставлен - Edzyowa
Синхронизация дорожек - Edzyowa


MediaInfoОбщее
Полное имя : Sailor Moon S The Movie / Sailor_Moon_S_The_Movie_-_Hearts_in_Ice_DVDRip.avi
Формат : AVI
Формат/Информация : Audio Video Interleave
Размер файла : 1,07 Гбайт
Продолжительность : 59 м.
Общий поток : 2550 Кбит/сек
Программа кодирования : VirtualDubMod 1.5.10.2 (build 2540/release)
Библиотека кодирования : VirtualDubMod build 2540/release
Видео
Идентификатор : 0
Формат : MPEG-4 Visual
Профиль формата : Advanced Simple@L5
Параметр BVOP формата : 1
Параметр QPel формата : Нет
Параметр GMC формата : Без точки перехода
Параметр матрицы формата : Выборочная
Идентификатор кодека : XVID
Идентификатор кодека/Подсказка : XviD
Продолжительность : 59 м.
Битрейт : 2151 Кбит/сек
Ширина : 704 пикс.
Высота : 400 пикс.
Соотношение сторон : 16:9
Частота кадров : 25,000 кадр/сек
Цветовое пространство : YUV
Подвыборка цветности : 4:2:0
Битовая глубина : 8 бит
Тип развёртки : Прогрессивная
Метод сжатия : С потерями
Бит/(Пиксели*Кадры) : 0.306
Размер потока : 921 Мбайт (84%)
Библиотека кодирования : XviD 73
Аудио #1
Идентификатор : 1
Формат : AC-3
Формат/Информация : Audio Coding 3
Расширение режима : CM (complete main)
Идентификатор кодека : 2000
Продолжительность : 59 м.
Вид битрейта : Постоянный
Битрейт : 192 Кбит/сек
Канал(ы) : 2 канала(ов)
Расположение каналов : Front: L R
Частота : 48,0 КГц
Битовая глубина : 16 бит
Метод сжатия : С потерями
Размер потока : 82,2 Мбайт (8%)
Выравнивание : Разделение по промежуткам
Продолжительность промежутка : 40 мс. (1,00 видеокадр)
Время предзагрузки промежутка : 500 ms
Заголовок : Russian
Аудио #2
Идентификатор : 2
Формат : AC-3
Формат/Информация : Audio Coding 3
Расширение режима : CM (complete main)
Идентификатор кодека : 2000
Продолжительность : 59 м.
Вид битрейта : Постоянный
Битрейт : 192 Кбит/сек
Канал(ы) : 2 канала(ов)
Расположение каналов : Front: L R
Частота : 48,0 КГц
Битовая глубина : 16 бит
Метод сжатия : С потерями
Размер потока : 82,2 Мбайт (8%)
Выравнивание : Разделение по промежуткам
Продолжительность промежутка : 40 мс. (1,00 видеокадр)
Время предзагрузки промежутка : 500 ms
Заголовок : Japanese

Красавица-воин Сейлор Мун Супер Эс - Спецвыпуск / Bishoujo Senshi Sailor Moon Super S Special (1995) - спэшл (3 из 3)

Информация о фильме
Название: Красавица-воин Сейлор Мун Супер Эс - Спецвыпуск
Оригинальное название: Sailor Moon Super S Special / Bishoujo Senshi Sailor Moon Super S Special / Beautiful-Girl Warrior Sailor Moon Super S Special / 美少女戦士セーラームーンSUPERSスペシャル
Страна: Япония
Год выхода: 1995
Жанр: махо-сёдзё, комедия, романтика, сёдзё
Режиссер: Уда Коносукэ / Uda Konosuke / 宇田鋼之介
О фильме: Все три части этого ТВ-спешла транслировались в один день — между показом четвёртого и пятого эпизодов (131-го и 132-го эпизодов по сквозной нумерации) четвёртого сезона Sailormoon.
Студия:
Продолжительность: ТВ-спэшл (3 эп.), по 16 мин.
Перевод: Любительский (двухголосый)
Субтитры: русские (софтсаб, *srt) - полные: Silence (внесены мелкие поправки в перевод + улучшен тайминг)
Хардсаб: отсутствует
Файл
Качество: DVDRip [by rs.bandito]
Формат: AVI
Видео: 640 x 480 (4:3), 25 fps, XviD build 73 ~1700 kbps avg, 0.221 bit/pixel
Аудио #1: Rus: 48 kHz, AC3 Dolby Digital, 2/0 (L,R) ch, ~192 kbps | Любительский (двухголосый) |
Аудио #2: Jap: 48 kHz, AC3 Dolby Digital, 2/0 (L,R) ch, ~192 kbps | Оригинал |
Доп. информация:
Исходник - DVDRemux (Итальянское реставрированное издание)
Исходник предоставлен - Edzyowa
Синхронизация дорожек - Edzyowa


MediaInfoОбщее
Полное имя : Sailor Moon Super S Special / Sailor_Moon_Super_S_Special_1.avi
Формат : AVI
Формат/Информация : Audio Video Interleave
Размер файла : 253 Мбайт
Продолжительность : 16 м.
Общий поток : 2098 Кбит/сек
Программа кодирования : VirtualDubMod 1.5.10.2 (build 2540/release)
Библиотека кодирования : VirtualDubMod build 2540/release
Видео
Идентификатор : 0
Формат : MPEG-4 Visual
Профиль формата : Advanced Simple@L5
Параметр BVOP формата : 1
Параметр QPel формата : Нет
Параметр GMC формата : Без точки перехода
Параметр матрицы формата : Выборочная
Идентификатор кодека : XVID
Идентификатор кодека/Подсказка : XviD
Продолжительность : 16 м.
Битрейт : 1699 Кбит/сек
Ширина : 640 пикс.
Высота : 480 пикс.
Соотношение сторон : 4:3
Частота кадров : 25,000 кадр/сек
Цветовое пространство : YUV
Подвыборка цветности : 4:2:0
Битовая глубина : 8 бит
Тип развёртки : Прогрессивная
Метод сжатия : С потерями
Бит/(Пиксели*Кадры) : 0.221
Размер потока : 205 Мбайт (81%)
Библиотека кодирования : XviD 73
Аудио #1
Идентификатор : 1
Формат : AC-3
Формат/Информация : Audio Coding 3
Расширение режима : CM (complete main)
Идентификатор кодека : 2000
Продолжительность : 16 м.
Вид битрейта : Постоянный
Битрейт : 192 Кбит/сек
Канал(ы) : 2 канала(ов)
Расположение каналов : Front: L R
Частота : 48,0 КГц
Битовая глубина : 16 бит
Метод сжатия : С потерями
Размер потока : 23,2 Мбайт (9%)
Выравнивание : Разделение по промежуткам
Продолжительность промежутка : 40 мс. (1,00 видеокадр)
Время предзагрузки промежутка : 500 ms
Заголовок : Russian
Аудио #2
Идентификатор : 2
Формат : AC-3
Формат/Информация : Audio Coding 3
Расширение режима : CM (complete main)
Идентификатор кодека : 2000
Продолжительность : 16 м.
Вид битрейта : Постоянный
Битрейт : 192 Кбит/сек
Канал(ы) : 2 канала(ов)
Расположение каналов : Front: L R
Частота : 48,0 КГц
Битовая глубина : 16 бит
Метод сжатия : С потерями
Размер потока : 23,2 Мбайт (9%)
Выравнивание : Разделение по промежуткам
Продолжительность промежутка : 40 мс. (1,00 видеокадр)
Время предзагрузки промежутка : 500 ms
Заголовок : Japanese

Красавица-воин Сейлор Мун Супер Эс - Чёрная Дыра Снов / Bishoujo Senshi Sailor Moon Super S - Sailor 9 Senshi Shuuketsu! Black-Dream-Hole no Kiseki (1995) - фильм

Информация о фильме
Название: Красавица-воин Сейлор Мун Супер Эс - Чёрная Дыра Снов
Оригинальное название: Sailor Moon Super S The Movie - Black Dream Hole / Bishoujo Senshi Sailor Moon Super S - Sailor 9 Senshi Shuuketsu! Black-Dream-Hole no Kiseki / 美少女戦士セーラームーンSuperS セーラー9戦士集結! ブラック・ドリーム・ホールの奇跡
Страна: Япония
Год выхода: 1995
Жанр: махо-сёдзё, приключения, драма, сёдзё
Режиссер: Сибата Хироки / Shibata Hiroki / 芝田浩樹
О фильме: Всё начинается с того, что в три часа ночи дети, зачарованные флейтой, покидают свои дома и исчезают: Ничего не подозревая, Усаги и её подруги готовят сладости, восхищаясь кулинарным искусством своих мам, которые их когда-то всему научили, и рассуждая о том, почему же третий час называют волшебным. Чиби Уса в тот же день знакомится со странным мальчиком по имени Перуру, который умеет с помощью своей флейты заставить сладости танцевать: Злодейкой, похищающей детей, оказывается некая мадам Вадиан, с которой Сейлор-воинам придётся сразиться, а заодно узнать, что сладости могут оказаться о-о-очень опасными...
Студия:
Продолжительность: полнометражный фильм, 60 мин.
Перевод: Любительский (многоголосый закадровый) | ElikaStudio
Субтитры: русские (софтсаб, *srt) - полные: Izh R.An.Ma (Тайминг и перевод: Yuri Gilfanov; Сверка перевода: Sergey Gilfanov & Sergey Kolchin); надписи
Хардсаб: отсутствует
Файл
Качество: DVDRip [by rs.bandito]
Формат: AVI
Видео: 640 x 384 (1.67:1), 25 fps, XviD build 73 ~1700 kbps avg, 0.277 bit/pixel
Аудио #1: Rus: 48 kHz, AC3 Dolby Digital, 2/0 (L,R) ch, ~192 kbps | Любительский (многоголосый закадровый) |
Аудио #2: Jap: 48 kHz, AC3 Dolby Digital, 2/0 (L,R) ch, ~192 kbps | Оригинал |
Аудио #3: Rus: 48 kHz, AC3 Dolby Digital, 2/0 (L,R) ch, ~192 kbps | минусовка (присутствуют все звуки, кроме голосов) | (отдельно)
Доп. информация:
Исходник - DVDRemux (Итальянское реставрированное издание)
Исходник предоставлен - Edzyowa
Озвучено: Наталья Генералова, Ангелина Гундорина, Борис Козловский, Андрей Исаев
Синхронизация дорожек - Edzyowa


MediaInfoОбщее
Полное имя : Sailor Moon Super S The Movie - Black Dream Hole / Sailor_Moon_Super_S_The_Movie_-_Black_Dream_Hole_DVDRip.avi
Формат : AVI
Формат/Информация : Audio Video Interleave
Размер файла : 900 Мбайт
Продолжительность : 59 м.
Общий поток : 2098 Кбит/сек
Программа кодирования : VirtualDubMod 1.5.10.3 | www.virtualdub-fr.org || (build 2550/release)
Библиотека кодирования : VirtualDubMod build 2550/release
Видео
Идентификатор : 0
Формат : MPEG-4 Visual
Профиль формата : Advanced Simple@L5
Параметр BVOP формата : 1
Параметр QPel формата : Нет
Параметр GMC формата : Без точки перехода
Параметр матрицы формата : Выборочная
Идентификатор кодека : XVID
Идентификатор кодека/Подсказка : XviD
Продолжительность : 59 м.
Битрейт : 1700 Кбит/сек
Ширина : 640 пикс.
Высота : 384 пикс.
Соотношение сторон : 1,667
Частота кадров : 25,000 кадр/сек
Цветовое пространство : YUV
Подвыборка цветности : 4:2:0
Битовая глубина : 8 бит
Тип развёртки : Прогрессивная
Метод сжатия : С потерями
Бит/(Пиксели*Кадры) : 0.277
Размер потока : 729 Мбайт (81%)
Библиотека кодирования : XviD 73
Аудио #1
Идентификатор : 1
Формат : AC-3
Формат/Информация : Audio Coding 3
Расширение режима : CM (complete main)
Идентификатор кодека : 2000
Продолжительность : 59 м.
Вид битрейта : Постоянный
Битрейт : 192 Кбит/сек
Канал(ы) : 2 канала(ов)
Расположение каналов : Front: L R
Частота : 48,0 КГц
Битовая глубина : 16 бит
Метод сжатия : С потерями
Размер потока : 82,3 Мбайт (9%)
Выравнивание : Разделение по промежуткам
Продолжительность промежутка : 40 мс. (1,00 видеокадр)
Время предзагрузки промежутка : 500 ms
Заголовок : Russian
Аудио #2
Идентификатор : 2
Формат : AC-3
Формат/Информация : Audio Coding 3
Расширение режима : CM (complete main)
Идентификатор кодека : 2000
Продолжительность : 59 м.
Вид битрейта : Постоянный
Битрейт : 192 Кбит/сек
Канал(ы) : 2 канала(ов)
Расположение каналов : Front: L R
Частота : 48,0 КГц
Битовая глубина : 16 бит
Метод сжатия : С потерями
Размер потока : 82,3 Мбайт (9%)
Выравнивание : Разделение по промежуткам
Продолжительность промежутка : 40 мс. (1,00 видеокадр)
Время предзагрузки промежутка : 500 ms
Заголовок : Japanese

Красавица-воин Сейлор Мун Супер Эс: Первая любовь Ами / Bishoujo Senshi Sailor Moon Gaiden - Ami-chan no Hatsukoi (1995) - спэшл

Информация о фильме
Название: Красавица-воин Сейлор Мун Супер Эс: Первая любовь Ами
Оригинальное название: Sailor Moon SuperS Plus - Ami's First Love / Beautiful-girl Warrior Sailor Moon Extra - Little Ami's First Love / 美少女戦士セーラームーンSuperS外伝 スペシャルプレゼント 亜美ちゃんの初恋
Страна: Япония
Год выхода: 1995
Жанр: махо-сёдзё, комедия, романтика, сёдзё
Режиссер: Игараси Такуя / Igarashi Takuya / 五十嵐卓哉
О фильме: Этот шестнадцатиминутный короткий специальный выпуск, шедший в кинотеатрах незадолго до Рождества парой с "Sailor Moon Super S Movie", несказанно поражает качеством графики.
В центре истории стоит Сейлор Меркурий, "мозг" команды (здесь она впервые появляется в очках!). Однажды, в вывешенном списке лучших учеников она замечает таинственного Меркуриуса, который так же хорош в учебе, как и она сама. Ами решает, что это вызов на "дуэль силы духа". Теперь она может думать только об одном - учебе, которой она занимает теперь и днем, и ночью, еще усерднее, чем обычно. Остальные Сейлоры могут только покачать головой и сделать из помешательства Ами вывод о том, что она влюбилась в своего загадочного противника.
В этом уверена и демонесса Bonnōn, которая специализируется на похищении энергии влюбленных девушек. Но для этого она выбрала неправильную жертву...

Студия:
Продолжительность: короткометражный фильм, 16 мин.
Перевод: Любительский (многоголосый закадровый) | CactusTeam
Любительский (одноголосый)
Субтитры: русские (софтсаб, *srt) - полные: Ze_us
Хардсаб: отсутствует
Файл
Качество: DVDRip [by rs.bandito]
Формат: AVI
Видео: 640 x 368 (1.74:1), 23.976 fps, XviD build 73 ~1700 kbps avg, 0.301
Аудио #1: Rus: 48 kHz, AC3 Dolby Digital, 2/0 (L,R) ch, ~192 kbps | Любительский (многоголосый закадровый) |
Аудио #2: Rus: 44.100 kHz, MPEG Layer 3, 2 ch, ~192.00 kbps avg | Любительский (одноголосый) |
Аудио #3: Jap: 48 kHz, AC3 Dolby Digital, 2/0 (L,R) ch, ~192 kbps | Оригинал |
Доп. информация:
Исходник - DVDRip (720p, 10 bits)
Исходник предоставлен - Yurasyk
Исходник дорожки CactusTeam предоставлен Fleh_808
CactusTeam - Перевод: Terramorpher;
Озвучивание: Ivaniska, Miori, Vizzey, HuckMasterOK, Redrain*, Nerox;
Тайминг: Aksel';
Работа со звуком: Aksel'


MediaInfoОбщее
Полное имя : Sailor Moon Super S Special - Ami's First Love / Sailor_Moon_Super_S_Special_-_Ami's_First_Love.avi
Формат : AVI
Формат/Информация : Audio Video Interleave
Размер файла : 262 Мбайт
Продолжительность : 15 м.
Общий поток : 2295 Кбит/сек
Программа кодирования : VirtualDubMod 1.5.10.3 | www.virtualdub-fr.org || (build 2550/release)
Библиотека кодирования : VirtualDubMod build 2550/release
Видео
Идентификатор : 0
Формат : MPEG-4 Visual
Профиль формата : Advanced Simple@L5
Параметр BVOP формата : 1
Параметр QPel формата : Нет
Параметр GMC формата : Без точки перехода
Параметр матрицы формата : Выборочная
Идентификатор кодека : XVID
Идентификатор кодека/Подсказка : XviD
Продолжительность : 15 м.
Битрейт : 1700 Кбит/сек
Ширина : 640 пикс.
Высота : 368 пикс.
Соотношение сторон : 16:9
Частота кадров : 23,976 кадр/сек
Цветовое пространство : YUV
Подвыборка цветности : 4:2:0
Битовая глубина : 8 бит
Тип развёртки : Прогрессивная
Метод сжатия : С потерями
Бит/(Пиксели*Кадры) : 0.301
Размер потока : 194 Мбайт (74%)
Библиотека кодирования : XviD 73
Аудио #1
Идентификатор : 1
Формат : AC-3
Формат/Информация : Audio Coding 3
Расширение режима : CM (complete main)
Идентификатор кодека : 2000
Продолжительность : 15 м.
Вид битрейта : Постоянный
Битрейт : 192 Кбит/сек
Канал(ы) : 2 канала(ов)
Расположение каналов : Front: L R
Частота : 48,0 КГц
Битовая глубина : 16 бит
Метод сжатия : С потерями
Размер потока : 21,9 Мбайт (8%)
Выравнивание : Разделение по промежуткам
Продолжительность промежутка : 42 мс. (1,00 видеокадр)
Время предзагрузки промежутка : 500 ms
Заголовок : Russian (MVO)
Аудио #2
Идентификатор : 2
Формат : MPEG Audio
Версия формата : Version 1
Профиль формата : Layer 3
Идентификатор кодека : 55
Идентификатор кодека/Подсказка : MP3
Продолжительность : 15 м.
Вид битрейта : Постоянный
Битрейт : 192 Кбит/сек
Канал(ы) : 2 канала(ов)
Частота : 44,1 КГц
Метод сжатия : С потерями
Размер потока : 21,9 Мбайт (8%)
Выравнивание : Разделение по промежуткам
Продолжительность промежутка : 42 мс. (1,00 видеокадр)
Время предзагрузки промежутка : 500 ms
Заголовок : Russian (VO)
Аудио #3
Идентификатор : 3
Формат : AC-3
Формат/Информация : Audio Coding 3
Расширение режима : CM (complete main)
Идентификатор кодека : 2000
Продолжительность : 15 м.
Вид битрейта : Постоянный
Битрейт : 192 Кбит/сек
Канал(ы) : 2 канала(ов)
Расположение каналов : Front: L R
Частота : 48,0 КГц
Битовая глубина : 16 бит
Метод сжатия : С потерями
Размер потока : 21,9 Мбайт (8%)
Выравнивание : Разделение по промежуткам
Продолжительность промежутка : 42 мс. (1,00 видеокадр)
Время предзагрузки промежутка : 500 ms
Заголовок : Japanese

AMV Красавица-Воин Сейлор Мун / AMV Pretty Soldier Sailor Moon (Cristina D'Avena)

Информация о фильме
Название: AMV Красавица-Воин Сейлор Мун
Оригинальное название: AMV Pretty Soldier Sailor Moon
Страна: Япония, Италия
Жанр: AMV
О фильме: AMV (без ремастера), которые были на дисках итальянского реставрированного издания.
Продолжительность: 3 x ~00:02:00
Перевод: Не требуется
Субтитры: Отсутствуют
Хардсаб: отсутствует
Файл
Качество: DVDRip [by rs.bandito]
Формат: AVI
Видео #1: 640x496 (1.29:1), 25 fps, XviD build 73 ~1821 kbps avg, 0.23 bit/pixel
Видео #2: 640x496 (1.29:1), 25 fps, XviD build 73 ~2228 kbps avg, 0.28 bit/pixel
Видео #3: 640x496 (1.29:1), 25 fps, XviD build 73 ~2391 kbps avg, 0.30 bit/pixel
Аудио: 48 kHz, AC3 Dolby Digital, 2/0 (L,R) ch, ~192 kbps
Доп. информация:
Исходник - DVDRemux
Исходник предоставлен - Edzyowa
Треклист:
Pretty Soldier Sailor Moon S - Cristina D'Avena (Sailor Moon e il Mistero dei Sogni) (***)
Pretty Soldier Sailor Moon Super S - Cristina D'Avena (Sailor moon e il cristallo del cuore) (***)
Pretty Soldier Sailor Moon Sailor Stars - Cristina D'Avena (Petali di Stelle per Sailor Moon) (***)


Опенинги и эндинги Сейлор Мун / Openings & Endings Sailor Moon


Информация о фильме
Название: Опенинги и эндинги Сейлор Мун
Оригинальное название: Openings & Endings Sailor Moon / OP & ED Sailor Moon
Страна: Япония
О фильме: Начальные и конечные заставки Сейлор Мун (без ремастера).
Продолжительность: 13 x ~00:01:30
Перевод: Не требуется
Субтитры: Отсутствуют
Хардсаб: отсутствует
Файл
Качество: DVDRip [by rs.bandito]
Формат: AVI
Видео: 640 x 480 (1.33:1), 23.976 fps, XviD build 73 ~1702 kbps avg, 0.231 bit/pixel
Аудио: 48 kHz, AC3 Dolby Digital, 2/0 (L,R) ch, ~384 kbps
Доп. информация:
Исходники - DVDRip (720p, 10 bits)
Исходники предоставлены - Yurasyk
Опенинги и эндинги в папках с сериями соответствующих сезонов

В каком порядке смотреть это аниме:
#01 Красавица-воин Сейлор Мун [ТВ] - ТВ (46 эп.), адаптация манги, первый сезон, 1992
#02 Красавица-воин Сейлор Мун Эр [ТВ] - ТВ (43 эп.), второй сезон, 1993
#03 Красавица-воин Сейлор Мун Эр - Фильм - п/ф, spinoff (ответвление сюжета) второго сезона, 1993
#04 Красавица-воин Сейлор Мун Эр (спэшл) - к/ф, дополнение к фильму, 1993
#05 Красавица-воин Сейлор Мун Эс [ТВ] - ТВ (38 эп.), третий сезон, 1994
#06 Красавица-воин Сейлор Мун Эс - Фильм - п/ф, spinoff (ответвление сюжета) третьего сезона, 1994
#07 Красавица-воин Сейлор Мун Супер Эс [ТВ] - ТВ (39 эп.), четвёртый сезон, 1995
#08 Красавица-воин Сейлор Мун Супер Эс - Спецвыпуск - ТВ-спэшл (1 эп.), spinoff (ответвление сюжета) четвертого сезона, 1995
#09 Красавица-воин Сейлор Мун Супер Эс - Фильм - п/ф, spinoff (ответвление сюжета) четвертого сезона, 1995
#10 Красавица-воин Сейлор Мун Супер Эс: Первая любовь Ами - к/ф, spinoff (ответвление сюжета) четвертого сезона, 1995
#11 Красавица-воин Сейлор Мун: Сейлор-звезды - ТВ (34 эп.), пятый сезон, 1996
Авторы рипов: BAXTOR5 & Miheleniya | Исходники: DVDRemux (Итальянское реставрированное издание)
[Профиль] [ЛС]
Показать сообщения:    

Текущее время: Сегодня 12:33

Часовой пояс: GMT



Вы не можете начинать темы
Вы не можете отвечать на сообщения
Вы не можете редактировать свои сообщения
Вы не можете удалять свои сообщения
Вы не можете голосовать в опросах
Вы не можете прикреплять файлы к сообщениям
Вы не можете скачивать файлы