Красавец и чудовище (Иван Криворучко) [2014, Россия, мелодрама, HDTV (1080i]

 
Автор Сообщение

TorrentFilm ®

Пол:

Стаж: 2 года

Сообщений: 7741



Награды: Нет

Торрент-статистика

Создавать темы 06-Мар-2016 00:08

[Цитировать]

Красавец и чудовище- -Страна: Россия
Жанр: мелодрама
Год выпуска: 2014
Производство: «Медиапрофсоюз, ООО "Тесей Продакшн"»
Продолжительность: 01:44:58
Оригинальная аудиодорожка: русский
Cубтитры: нет-Режиссер: Иван Криворучко-В ролях:
Вероника Пляшкевич, Алексей Анищенко, Артем Давидович, Валерия Шкирандо, Тамара Миронова, Анатолий Гурьев, Ирина Корниевич,
Андрей Кривецкий, Андрей Карако, Анатолий Голуб, Олег Коц, Виталий Холодок, Валерий Кащеев, Диана Иванова, Анастасия Боброва, Инна Коляда-Описание:
Варвара Гвоздикова — торговка помидорами и гроза местного рынка. За словом в карман не лезет, себя в обиду не дает. За непримиримый характер, чумазое лицо и вечную телогрейку Варю называют «чудовищем». Впрочем, не такое уж Варя «чудовище». Просто какой тут лоск, если работаешь от зари до зари, а всю зарплату забирают мать-пьяница и ее непутевый муж? Да и рынок провинциального городка — не то место, где можно научиться хорошим манерам. Варя и сама уже не помнит о времени, когда носила косу, была любимицей отца и лучшей ученицей в классе. Отец умер, и жизнь сложилась так… как сложилась. Варя не жалуется и не унывает, но ровно до того дня, пока не оказывается без дома и без работы. Директор рынка выбрасывает Варю на улицу за то, что она отдавила ногу и нахамила важному клиенту — столичному бизнесмену, красавцу Ивану. А мать не собирается держать дома «дармоедку».-Возраст: 16+-Качество: HDTV (1080i)
Формат: TS
Видео кодек: AVC
Аудио кодек: MPEG Audio

Видео: AVC, 1920 х 1080 (16:9), 25,000 кадр/сек, 7 929 Кбит/сек, 0.153 bit/pixel
Аудио: MPEG Audio 2, 48000 Hz, 256 Kbps, 2 канала
-

MediaInfo

General
ID : 1 (0x1)
Complete name : E:\Красавец и чудовище HDTV (1080i)\Красавец и чудовище HDTV (1080i).ts
Format : MPEG-TS
File size : 6.32 GiB
Duration : 1h 44mn
Overall bit rate mode : Variable
Overall bit rate : 8 614 Kbps
Maximum Overall bit rate : 35.5 Mbps
Video
ID : 4113 (0x1011)
Menu ID : 1 (0x1)
Format : AVC
Format/Info : Advanced Video Codec
Format profile : High@L4
Format settings, CABAC : Yes
Format settings, ReFrames : 4 frames
Codec ID : 27
Duration : 1h 44mn
Bit rate mode : Variable
Bit rate : 7 929 Kbps
Maximum bit rate : 40.0 Mbps
Width : 1 920 pixels
Height : 1 080 pixels
Display aspect ratio : 16:9
Frame rate : 25.000 fps
Color space : YUV
Chroma subsampling : 4:2:0
Bit depth : 8 bits
Scan type : MBAFF
Bits/(Pixel*Frame) : 0.153
Stream size : 5.81 GiB (92%)
Audio
ID : 4352 (0x1100)
Menu ID : 1 (0x1)
Format : MPEG Audio
Format version : Version 1
Format profile : Layer 2
Codec ID : 4
Duration : 1h 44mn
Bit rate mode : Constant
Bit rate : 256 Kbps
Channel(s) : 2 channels
Sampling rate : 48.0 KHz
Compression mode : Lossy
Stream size : 192 MiB (3%)
Language : Russian

Скриншоты


-Раздаю до первых 5-ти скачавших, на раздачи не возвращаюсь...-
[Профиль] [ЛС]
Кто просматривает тему:

Форум Тема Автор Размер
Фильмы 2006-2008 года Берегитесь, красавицы / Bachna Ae Haseeno (2008) BDRip-AVC | P sergej644 4.37 GB
Детские отечественные фильмы Варвара-краса, длинная коса (1969) BDRip sergej644 1.37 GB
Детские отечественные фильмы Варвара-Краса, длинная коса (1969) BDRip [1080p] sergej644 4.8 GB
Фильмы (HD Rips | 720p, 1080p) Варвара-краса, длинная коса (Александр Роу) [1969, СССР, фэнтези, драма, мелодрама, комедия, семейный, Blu-ray disc 1080i] TorrentFilm 16.6 GB
Фильмы (DVD 5/9) Год золотой рыбки (Андрей Красавин) [2007 г., Мелодрама, DVD5] TorrentFilm 4.05 GB
Отечественные cериалы Дом спящих красавиц [01-02 из 02] (2014) WEB-DLRip от Interhit достали все 2.74 GB
Приключения, Квесты, Логические Измерения тьмы. Восковая красавица. Коллекционное издание (2012) PC достали все 710 MB
Зарубежные сериалы Красавица и Чудовище / Beauty and the Beast / Сезон: 1 / Серии: 1-22 (22) (Гэри Фледер) [2012, драма, криминал, WEB-DL 720p] MVO (Lostfilm) E.S.P. 31.06 GB
Показать сообщения:    

Текущее время: Сегодня 05:16

Часовой пояс: GMT



Вы не можете начинать темы
Вы не можете отвечать на сообщения
Вы не можете редактировать свои сообщения
Вы не можете удалять свои сообщения
Вы не можете голосовать в опросах
Вы не можете прикреплять файлы к сообщениям
Вы не можете скачивать файлы