Крампус / Krampus (2015) WEB-DLRip | iTunes

 
Автор Сообщение

достали все ®

Пол:

Стаж: 1 год 8 месяцев

Сообщений: 6545



Награды: 12 (Подробнее)

Top Releaser 4 (Количество: 1) Mega Releaser 1 (Количество: 1) Mega Seeder 2 (Количество: 1)
Торрент-статистика

Создавать темы 25-Фев-2016 15:37

[Цитировать]

Крампус / Krampus (2015) WEB-DLRip - Производство: США, Новая Зеландия
Жанр: Ужасы, Фэнтези, Комедия
Режиссер: Майкл Догерти
Продюсер: Майкл Догерти, Алекс Гарсиа, Джон Дж. Джашни
Актеры: Адам Скотт, Тони Коллетт, Дэвид Кокнер, Эллисон Толман, Кончата Феррелл, Эмджей Энтони, Стефания Оуэн, Криста Штадлер, Марк Аткин, Тревор Пау
Описание:
Когда в неблагополучной семье маленького Макса снова происходит конфликт накануне Рождества, то мальчик поворачивается к празднику спиной. Он еще не знает, что его отсутствие праздничного духа пробудило гнев Крампуса, демонического существа, наказывающего неверующих. Теперь всей семье придется заплатить за порчу Рождества. Но если герои хотят выжить, то им придется объединиться в борьбе со злом, забыв о своих мелких конфликтах.

Возраст: 16+ (зрителям, достигшим 16 лет)
Рейтинг MPAA: PG-13 (детям до 13 лет просмотр нежелателен)
Дата мировой премьеры: 30 ноября 2015
Дата премьеры в России: 1 января 2016, «UPI»

Релиз от: K.E.N
Продолжительность: 01:37:40
Качество видео: WEB-DLRip
Перевод: Дублированный (iTunes)
Субтитры: отсутствуют
Видео: MPEG4, XviD, 720x304 (2.35:1), 23.976 fps, 927 Kbps (0.177 bit/pixel)
Аудио: MP3, 48.0 KHz, 2 ch, 128 Kbps, CBR

Mediainfo:

Формат : AVI
Формат/Информация : Audio Video Interleave
Размер файла : 743 Мбайт
Продолжительность : 1 ч. 37 м.
Общий поток : 1064 Кбит/сек
Программа кодирования : VirtualDubMod 1.5.10.3 | www.virtualdub-fr.org || (build 2550/release)
Библиотека кодирования : VirtualDubMod build 2550/release
Видео
Идентификатор : 0
Формат : MPEG-4 Visual
Профиль формата : Advanced Simple@L5
Параметр BVOP формата : 1
Параметр QPel формата : Нет
Параметр GMC формата : Без точки перехода
Параметр матрицы формата : Выборочная
Идентификатор кодека : XVID
Идентификатор кодека/Подсказка : XviD
Продолжительность : 1 ч. 37 м.
Битрейт : 927 Кбит/сек
Ширина : 720 пикселей
Высота : 304 пикселя
Соотношение сторон : 2,35:1
Частота кадров : 23,976 кадра/сек
Цветовое пространство : YUV
Субдискретизация насыщенности : 4:2:0
Битовая глубина : 8 бит
Тип развёртки : Прогрессивная
Метод сжатия : С потерями
Бит/(Пиксели*Кадры) : 0.177
Размер потока : 648 Мбайт (87%)
Библиотека кодирования : XviD 73
Аудио
Идентификатор : 1
Формат : MPEG Audio
Версия формата : Version 1
Профиль формата : Layer 3
Идентификатор кодека : 55
Идентификатор кодека/Подсказка : MP3
Продолжительность : 1 ч. 37 м.
Вид битрейта : Постоянный
Битрейт : 128 Кбит/сек
Каналы : 2 канала
Частота : 48,0 КГц
Метод сжатия : С потерями
Размер потока : 89,4 Мбайт (12%)
Выравнивание : Соединение по промежуткам
Продолжительность промежутка : 42 мс. (1,00 видеокадр)
Время предзагрузки промежутка : 504 мс.
Библиотека кодирования : LAME3.99r
Настройки программы : -m s -V 4 -q 2 -lowpass 17 -b 128
Скриншоты:
[Профиль] [ЛС]
Показать сообщения:    

Текущее время: Сегодня 14:34

Часовой пояс: GMT



Вы не можете начинать темы
Вы не можете отвечать на сообщения
Вы не можете редактировать свои сообщения
Вы не можете удалять свои сообщения
Вы не можете голосовать в опросах
Вы не можете прикреплять файлы к сообщениям
Вы не можете скачивать файлы