Кража в музее / The Maiden Heist (Питер Хьюит / Peter Hewitt) [2009, США, комедия, криминал, BDRip-AVC] DVO + Original (Eng) + Sub (Rus, Eng)

 
Автор Сообщение

TorrentFilm ®

Пол:

Стаж: 2 года

Сообщений: 7741



Награды: Нет

Торрент-статистика

Создавать темы 31-Дек-2014 00:00

[Цитировать]

Кража в музее / The Maiden Heist
Страна: США
Жанр: комедия, криминал
Год выпуска: 2009
Продолжительность: 01:30:25
Перевод: Профессиональный (двухголосый закадровый)
Cубтитры: русские, английские
Оригинальная аудиодорожка: английский
Режиссер: Питер Хьюит / Peter Hewitt
В ролях: Морган Фриман, Кристофер Уокен, Марша Гэй Харден, Уильям Х. Мэйси, Винн Эверетт, София Гудельман, Бейтс Уайлдер, Роберт Масьелло, Ники Коннорс, Кристи Скотт Кэшман
Описание: Сюжет комедии разворачивается вокруг трех охранников музея, которые разрабатывают план кражи картин, полюбившихся ими за годы работы, но которые хотят передать в другой музей

Исходник: BDRemux, спасибо dragomire
Качество видео: BDRip-AVC | | sample
Формат видео: MKV
Видео кодек: x264
Видео: AVC 1106x462 (2.40:1), 23.976 fps, ~4200 Kbps, 0.34 bit/pixel
Аудио #1: Russian AC3 6ch 48kHz 448Kbps | DVO
Аудио #2: English AC3 6ch 48kHz 448Kbps | Original
Формат субтитров: softsub (SRT)
Главы: есть

MediaInfo | x264x264

--[Information] [06.10.2014 17:35:08] raw [info]: 1106x462p 1:1 @ 24000/1001 fps (cfr)
--[Information] [07.10.2014 8:08:33] x264 [info]: frame I:1001 Avg QP:14.92 size: 97564
--[Information] [07.10.2014 8:08:33] x264 [info]: frame P:24322 Avg QP:18.09 size: 43513
--[Information] [07.10.2014 8:08:33] x264 [info]: frame B:104590 Avg QP:19.16 size: 16132
--[Information] [07.10.2014 8:08:33] x264 [info]: consecutive B-frames: 1.2% 0.7% 3.4% 14.7% 12.8% 52.7% 7.1% 1.4% 3.3% 1.2% 1.6%
--[Information] [07.10.2014 8:08:33] x264 [info]: kb/s:4197.94
General
Complete name : E:\...\The.Maiden.Heist.2009.PROPER.BDRip.x264.DD5.1.Rus.Eng-E76.mkv
Format : Matroska
Format version : Version 2
File size : 3.21 GiB
Duration : 1h 30mn
Overall bit rate : 5 090 Kbps
Movie name : The.Maiden.Heist.2009.PROPER.BDRip.x264.DD5.1.Rus.Eng-E76
Encoded date : UTC 2014-12-21 15:17:16
Writing application : mkvmerge v7.0.0 ('Where We Going') 64bit built on Jun 9 2014 15:16:27
Writing library : libebml v1.3.0 + libmatroska v1.4.1
Video
ID : 1
Format : AVC
Format/Info : Advanced Video Codec
Format profile : High@L4.1
Format settings, CABAC : Yes
Format settings, ReFrames : 12 frames
Codec ID : V_MPEG4/ISO/AVC
Duration : 1h 30mn
Bit rate : 4 200 Kbps
Width : 1 106 pixels
Height : 462 pixels
Display aspect ratio : 2.40:1
Frame rate mode : Constant
Frame rate : 23.976 fps
Color space : YUV
Chroma subsampling : 4:2:0
Bit depth : 8 bits
Scan type : Progressive
Bits/(Pixel*Frame) : 0.343
Stream size : 2.59 GiB (80%)
Title : The Maiden Heist (2009)
Writing library : x264 core 142 r2479kMod dd79a61
Encoding settings : cabac=1 / ref=12 / deblock=1:-3:-3 / analyse=0x3:0x113 / me=umh / subme=11 / psy=1 / fade_compensate=0.00 / psy_rd=1.05:0.00 / mixed_ref=1 / me_range=48 / chroma_me=1 / trellis=2 / 8x8dct=1 / cqm=0 / deadzone=21,11 / fast_pskip=0 / chroma_qp_offset=-2 / threads=6 / lookahead_threads=1 / sliced_threads=0 / nr=0 / decimate=0 / interlaced=0 / bluray_compat=0 / constrained_intra=0 / fgo=0 / bframes=10 / b_pyramid=2 / b_adapt=2 / b_bias=0 / direct=3 / weightb=1 / open_gop=0 / weightp=2 / keyint=240 / keyint_min=23 / scenecut=40 / intra_refresh=0 / rc_lookahead=0 / rc=2pass / mbtree=0 / bitrate=4200 / ratetol=1.0 / qcomp=0.65 / qpmin=0 / qpmax=69 / qpstep=4 / cplxblur=20.0 / qblur=0.5 / vbv_maxrate=62500 / vbv_bufsize=78125 / nal_hrd=none / filler=0 / ip_ratio=1.40 / pb_ratio=1.30 / aq=1:0.90 / zones=123310,129912,q=30
Language : English
Default : Yes
Forced : No
Matrix coefficients : BT.709
Audio #1
ID : 2
Format : AC-3
Format/Info : Audio Coding 3
Mode extension : CM (complete main)
Format settings, Endianness : Big
Codec ID : A_AC3
Duration : 1h 30mn
Bit rate mode : Constant
Bit rate : 448 Kbps
Channel(s) : 6 channels
Channel positions : Front: L C R, Side: L R, LFE
Sampling rate : 48.0 KHz
Bit depth : 16 bits
Compression mode : Lossy
Stream size : 290 MiB (9%)
Title : DVO
Language : Russian
Default : Yes
Forced : No
Audio #2
ID : 3
Format : AC-3
Format/Info : Audio Coding 3
Mode extension : CM (complete main)
Format settings, Endianness : Big
Codec ID : A_AC3
Duration : 1h 30mn
Bit rate mode : Constant
Bit rate : 448 Kbps
Channel(s) : 6 channels
Channel positions : Front: L C R, Side: L R, LFE
Sampling rate : 48.0 KHz
Bit depth : 16 bits
Compression mode : Lossy
Stream size : 290 MiB (9%)
Title : Original
Language : English
Default : No
Forced : No
Text #1
ID : 4
Format : UTF-8
Codec ID : S_TEXT/UTF8
Codec ID/Info : UTF-8 Plain Text
Language : Russian
Default : No
Forced : No
Text #2
ID : 5
Format : UTF-8
Codec ID : S_TEXT/UTF8
Codec ID/Info : UTF-8 Plain Text
Language : English
Default : No
Forced : No
Menu
00:00:00.000 : :Chapter 1
00:10:20.828 : :Chapter 2
...
01:30:18.412 : :Chapter 13

Скриншоты



source vs filtered vs E76 vs 720p


=> Новые релизы в AVC | | Заказ рипов в AVC
[Профиль] [ЛС]

Создавать темы 06-Авг-2015 22:53 (спустя 7 месяцев 6 дней)

Топик был перенесен из форума Фильмы до 2014 года в форум Фильмы до 2012 года
sergej644
 

Создавать темы 12-Июн-2016 08:48 (спустя 1 год 5 месяцев)

Топик был перенесен из форума Фильмы 2011 года в форум Фильмы 2009 года
Russian Mafia
 
Показать сообщения:    

Текущее время: Сегодня 18:58

Часовой пояс: GMT



Вы не можете начинать темы
Вы не можете отвечать на сообщения
Вы не можете редактировать свои сообщения
Вы не можете удалять свои сообщения
Вы не можете голосовать в опросах
Вы не можете прикреплять файлы к сообщениям
Вы не можете скачивать файлы