Кража автомобилей / Stealing Cars (2015) WEB-DL 1080p | P

 
Автор Сообщение

достали все ®

Пол:

Стаж: 1 год 8 месяцев

Сообщений: 6581



Награды: 12 (Подробнее)

Top Releaser 4 (Количество: 1) Mega Releaser 1 (Количество: 1) Top Releaser 2 (Количество: 1)
Торрент-статистика

Создавать темы 30-Апр-2016 03:56

[Цитировать]

Информация о фильме
Название: Кража автомобилей
Оригинальное название: Stealing Cars
Год выхода: 2015
Жанр: Драма
Режиссер: Брэдли Каплан
В ролях: Эмори Коэн, Уильям Х. Мэйси, Джон Легуизамо, Фелисити Хаффмен, Пол Спаркс, Хезер Линд, Майк Эппс, Чэнс Келли, Тарик Троттер, Аль Калдерон
О фильме:
Когда жизнь Билли Уайта пошла под откос, он ударился в криминал. Парень попался на автомобильной краже и угодил в подростковую колонию, известную как Бернвилльский лагерь для мальчиков. В первом же день Билли испытал на своей шкуре все «перелести» местных порядков и деспотизм тюремных надзирателей, которые любой случайный взгляд принимают как личное оскорбление. Своенравному, свободолюбивому и обладающему живым умом молодому человеку, который так не похож на других заключенных, здесь явно придется тяжело. Но Билли не из тех, кто легко сдается. Он решает установить свои порядки и искоренить произвол тюремщиков. Революционные идеи Уайта находят как своих сторонников, так и ярых противников…

Страна: США
Студия: Leverage Management
Продолжительность: 01:49:29
Перевод: Профессиональный многоголосый (закадровый)
Файл
Кодек: MPEG-4
Качество: WEB-DL 1080p
Видео: 1916x1032, 4933 Kbit/s, 23.976 fps
Звук:
Аудио #01: 48 kHz, AC3, 2.0, 192 Kbps | Профессиональный многоголосый (закадровый) |
Аудио #02: 48 kHz, AC3, 5.1, 384 kbps | Оригинал |
Субтитры: Английские
Релиз от: Автор релиза:

MI

Общее
Уникальный идентификатор : 173596892768200275460033261471076682991 (0x82998B9F901629F9AEA45F2D6DCB8CEF)
Полное имя : F:VideoStealing.Cars.2015.WEB-DL.1080p.mkv
Формат : Matroska
Версия формата : Version 4 / Version 2
Размер файла : 3,91 Гбайт
Продолжительность : 1 ч. 41 м.
Общий поток : 5510 Кбит/сек
Название фильма : Stealing.Cars.2015.WEB-DL.1080p
Дата кодирования : UTC 2016-04-29 20:00:11
Программа кодирования : mkvmerge v8.3.0 ('Over the Horizon') 64bit
Библиотека кодирования : libebml v1.3.1 + libmatroska v1.4.2
Видео
Идентификатор : 1
Формат : AVC
Формат/Информация : Advanced Video Codec
Профиль формата : High@L4
Параметр CABAC формата : Да
Параметр ReFrames формата : 4 кадра
Идентификатор кодека : V_MPEG4/ISO/AVC
Продолжительность : 1 ч. 41 м.
Битрейт : 4933 Кбит/сек
Ширина : 1916 пикселей
Высота : 1032 пикселя
Соотношение сторон : 1,85:1
Режим частоты кадров : Постоянный
Частота кадров : 23,976 кадра/сек
Цветовое пространство : YUV
Субдискретизация насыщенности : 4:2:0
Битовая глубина : 8 бит
Тип развёртки : Прогрессивная
Бит/(Пиксели*Кадры) : 0.104
Размер потока : 3,50 Гбайт (90%)
Язык : English
Default : Да
Forced : Нет
Цветовой диапазон : Limited
Основные цвета : BT.709
Характеристики трансфера : BT.709
Коэффициенты матрицы : BT.709
Аудио #1
Идентификатор : 2
Формат : AC-3
Формат/Информация : Audio Coding 3
Расширение режима : CM (complete main)
Параметр Endianness формата : Big
Идентификатор кодека : A_AC3
Продолжительность : 1 ч. 41 м.
Вид битрейта : Постоянный
Битрейт : 192 Кбит/сек
Каналы : 2 канала
Расположение каналов : Front: L R
Частота : 48,0 КГц
Частота кадров : 31,250 кадров/сек (1536 spf)
Метод сжатия : С потерями
Задержка видео : 24 мс.
Размер потока : 139 Мбайт (3%)
Язык : Russian
Default : Да
Forced : Нет
Аудио #2
Идентификатор : 3
Формат : AC-3
Формат/Информация : Audio Coding 3
Расширение режима : CM (complete main)
Параметр Endianness формата : Big
Идентификатор кодека : A_AC3
Продолжительность : 1 ч. 41 м.
Вид битрейта : Постоянный
Битрейт : 384 Кбит/сек
Каналы : 6 каналов
Расположение каналов : Front: L C R, Side: L R, LFE
Частота : 48,0 КГц
Частота кадров : 31,250 кадров/сек (1536 spf)
Метод сжатия : С потерями
Размер потока : 279 Мбайт (7%)
Язык : English
Default : Нет
Forced : Нет
Текст
Идентификатор : 4
Формат : UTF-8
Идентификатор кодека : S_TEXT/UTF8
Идентификатор кодека/Информация : UTF-8 Plain Text
Продолжительность : 1 ч. 35 м.
Битрейт : 63 бит/сек
Count of elements : 1246
Размер потока : 44,5 Кбайт (0%)
Язык : English
Default : Нет
Forced : Нет

Скриншоты

[Профиль] [ЛС]
Показать сообщения:    

Текущее время: Сегодня 00:20

Часовой пояс: GMT



Вы не можете начинать темы
Вы не можете отвечать на сообщения
Вы не можете редактировать свои сообщения
Вы не можете удалять свои сообщения
Вы не можете голосовать в опросах
Вы не можете прикреплять файлы к сообщениям
Вы не можете скачивать файлы