Краденое свидание / Man Up (2015) BDRip 720p от AleksSin | P | iTunes

 
Автор Сообщение

AleksSin ®

Пол:

Стаж: 6 лет

Сообщений: 218



Награды: 4 (Подробнее)

Mega Seeder 1 (Количество: 1) Mega Seeder 2 (Количество: 1) Mega Seeder 3 (Количество: 1)
Торрент-статистика

Создавать темы 02-Мар-2016 11:41

[Цитировать]

Краденое свидание / Man UpГод выхода: 2015
Жанр: мелодрама, комедия
Страна: Великобритания, Франция
Студия: Big Talk Productions, Studio Canal
Продолжительность: 01:28:56
Перевод: Профессиональный (многоголосый, закадровый) [iTunes]
Субтитры: Английские (srt) (2 вида, полные)
Навигация по главам: Есть
Режиссер: Бен Палмер / Ben Palmer
В ролях: Саймон Пегг, Лэйк Белл, Рори Киннер, Оливия Уильямс, Генри Ллойд-Хьюз, Офелия Ловибонд, Шэрон Хорган, Стивен Кэмпбелл Мур, Дин-Чарльз Чепмен, Кен Стотт
О фильме:
Одинокая, замкнутая в себе девушка, тридцати четырех лет от роду по ошибке попадает на свидание вслепую. И вместо того, чтобы признаться парню в том, что она не та за кого он ее принял, она начинает играть роль, что в последствии приводит к комичным ситуациям и любви, так сказать "с первого псевдосвидания".

Семпл
Файл
Кодек: х264
Качество: BDRip 720p Исходник Blu-Ray Remux 1080p
Видео: MPEG-4 AVC, 6136 Кбит/с, 1280x534 (1,40:1), 23,976 кадра/сек, 0.37 bit/pixel
Аудио #1: AC-3, 48.0 KHz, 6 ch, 384 Kbps (Russian) - Многоголосый закадровый, iTunes Russia
Аудио #2: 48 kHz/24-bit, 6 ch, DTS-HD MA 5.1, ~1509 kbps avg (English) - оригинал

MediaInfo

Общее
Уникальный идентификатор : 188091963815048013130469188298716619176 (0x8D8131CD706154EBAF8B517E6CAE21A8)
Полное имя : S:ФильмыКраденое свидание. 2015. BDRip 720p (AleksSim).mkv
Формат : Matroska
Версия формата : Version 4 / Version 2
Размер файла : 6,43 Гбайт
Продолжительность : 1 ч. 28 м.
Общий поток : 10,4 Мбит/сек
Дата кодирования : UTC 2016-03-02 10:30:44
Программа кодирования : mkvmerge v8.1.0 ('Psychedelic Postcard') 32bit
Библиотека кодирования : libebml v1.3.1 + libmatroska v1.4.2
Видео
Идентификатор : 1
Формат : AVC
Формат/Информация : Advanced Video Codec
Профиль формата : High@L4.1
Параметр CABAC формата : Да
Параметр ReFrames формата : 12 кадров
Идентификатор кодека : V_MPEG4/ISO/AVC
Продолжительность : 1 ч. 28 м.
Битрейт : 6136 Кбит/сек
Ширина : 1280 пикселей
Высота : 534 пикселя
Соотношение сторон : 2,40:1
Режим частоты кадров : Постоянный
Частота кадров : 23,976 (24000/1001) кадра/сек
Цветовое пространство : YUV
Субдискретизация насыщенности : 4:2:0
Битовая глубина : 8 бит
Тип развёртки : Прогрессивная
Бит/(Пиксели*Кадры) : 0.374
Размер потока : 3,80 Гбайт (59%)
Библиотека кодирования : x264 core 148 r2665 a01e339
Настройки программы : cabac=1 / ref=12 / deblock=1:-3:-3 / analyse=0x3:0x133 / me=umh / subme=11 / psy=1 / psy_rd=1.03:0.00 / mixed_ref=1 / me_range=32 / chroma_me=1 / trellis=2 / 8x8dct=1 / cqm=0 / deadzone=21,11 / fast_pskip=0 / chroma_qp_offset=0 / threads=12 / lookahead_threads=2 / sliced_threads=0 / nr=0 / decimate=1 / interlaced=0 / bluray_compat=0 / constrained_intra=0 / bframes=8 / b_pyramid=2 / b_adapt=2 / b_bias=0 / direct=1 / weightb=1 / open_gop=0 / weightp=2 / keyint=250 / keyint_min=23 / scenecut=40 / intra_refresh=0 / rc_lookahead=60 / rc=crf / mbtree=0 / crf=17.2 / qcomp=0.65 / qpmin=0 / qpmax=69 / qpstep=4 / vbv_maxrate=62500 / vbv_bufsize=78125 / crf_max=0.0 / nal_hrd=none / filler=0 / ip_ratio=1.40 / pb_ratio=1.30 / aq=3:0.85
Default : Да
Forced : Нет
Аудио #1
Идентификатор : 2
Формат : AC-3
Формат/Информация : Audio Coding 3
Расширение режима : CM (complete main)
Параметр Endianness формата : Big
Идентификатор кодека : A_AC3
Продолжительность : 1 ч. 28 м.
Вид битрейта : Постоянный
Битрейт : 384 Кбит/сек
Каналы : 6 каналов
Расположение каналов : Front: L C R, Side: L R, LFE
Частота : 48,0 КГц
Частота кадров : 31,250 кадров/сек (1536 spf)
Метод сжатия : С потерями
Размер потока : 243 Мбайт (4%)
Язык : Russian
Default : Да
Forced : Нет
Аудио #2
Идентификатор : 3
Формат : DTS
Формат/Информация : Digital Theater Systems
Профиль формата : MA / Core
Режим : 16
Параметр Endianness формата : Big
Идентификатор кодека : A_DTS
Продолжительность : 1 ч. 28 м.
Вид битрейта : Переменный / Постоянный
Битрейт : 3840 Кбит/сек / 1509 Кбит/сек
Каналы : 6 каналов
Расположение каналов : Front: L C R, Side: L R, LFE
Частота : 48,0 КГц
Частота кадров : 93,750 кадра/сек (512 spf)
Битовая глубина : 24 бит
Метод сжатия : Без потерь / Lossy
Размер потока : 2,39 Гбайт (37%)
Язык : English
Default : Нет
Forced : Нет
Текст #1
Идентификатор : 4
Формат : UTF-8
Идентификатор кодека : S_TEXT/UTF8
Идентификатор кодека/Информация : UTF-8 Plain Text
Продолжительность : 1 ч. 21 м.
Битрейт : 91 бит/сек
Count of elements : 1540
Размер потока : 54,7 Кбайт (0%)
Язык : English
Default : Да
Forced : Нет
Текст #2
Идентификатор : 5
Формат : UTF-8
Идентификатор кодека : S_TEXT/UTF8
Идентификатор кодека/Информация : UTF-8 Plain Text
Продолжительность : 1 ч. 22 м.
Битрейт : 98 бит/сек
Count of elements : 1497
Размер потока : 60,1 Кбайт (0%)
Язык : English
Default : Нет
Forced : Нет
Меню
00:00:00.000 : en:
00:05:00.000 : en:
00:10:00.000 : en:
00:15:00.000 : en:
00:20:00.000 : en:
00:25:00.000 : en:
00:30:00.000 : en:
00:35:00.000 : en:
00:40:00.000 : en:
00:45:00.000 : en:
00:50:00.000 : en:
00:55:00.000 : en:
01:00:00.000 : en:

Скриншоты

[Профиль] [ЛС]
Показать сообщения:    

Текущее время: Сегодня 08:33

Часовой пояс: GMT



Вы не можете начинать темы
Вы не можете отвечать на сообщения
Вы не можете редактировать свои сообщения
Вы не можете удалять свои сообщения
Вы не можете голосовать в опросах
Вы не можете прикреплять файлы к сообщениям
Вы не можете скачивать файлы