Кошки-мышки / Поймай и отпусти / Catch and Release (Сюзанна Грант / Susannah Grant) [2006 г., США, драма, мелодрама, комедия, BDRip] MVO (R5)

 
Автор Сообщение

painkiller ®

Стаж: 2 года 3 месяца

Сообщений: 582



Награды: Нет

Торрент-статистика

Создавать темы 27-Авг-2014 19:49

[Цитировать]

Кошки-мышки / Поймай и отпустиCatch and Release-«Life is messy...love is messier»- Год выпуска: 2006
Страна: США-Жанр: драма, мелодрама, комедия
Продолжительность: 01:51:36
Перевод: Профессиональный (многоголосый, закадровый) (R5)
Субтитры: нет-Режиссер: Сюзанна Грант / Susannah Grant
Сценарий: Сюзанна Грант / Susannah Grant
Продюсер: Дженно Топпинг / Jenno Topping, Кэйси Грант / Casey Grant, Райан Кэвэна / Ryan Kavanaugh, Джош Сигел / Josh Siegel, Линвуд Спинкс / Lynwood Spinks
Оператор: Джон Линдли / John Lindley
Композитор: Брайан Трэнсо / Brian Transeau, Томми Стинсон / Tommy Stinson-В ролях: Дженнифер Гарнер (Gray), Тимоти Олифант (Fritz), Сэм Джагер (Dennis), Кевин Смит (Sam), Джульетт Льюис (Maureen), Джошуа Фризен (Mattie), Фиона Шоу (Mrs. Douglas), Тина Лиффорд (Eve), Джорджия Крэйг (Persephone), Кристофер Редман (Flower Delivery Guy), Джойс Кренц (Housekeeper), Соня Беннет (Caterer)-Описание: После смерти своего жениха Грэйди, который незадолго до свадьбы скончался в результате несчастного случая, Грэй, пытающаяся вернуться к нормальной жизни, переезжает в квартиру, где живут ее приятели Сэм и Деннис.
Вскоре Грэй выясняет, что ее жених был тайным миллионером и что каждый месяц он посылал деньги неизвестному ей адресату. В конце концов Грэй понимает, что покойный вовсе не был идеальным человеком, каким он ей казался. Пережить это неприятное открытие ей помогает Фриц, лучший друг Грэйди, испытывающий к Грэй романтические чувства...-kinopoisk.ru: 6.685 (1448)
imdb.com: 6.00 (15 963)
MPAA: PG-13 - Детям до 13 лет просмотр не желателен-Качество: BDRip / Catch.and.Release.2006.COMPLETE.BLURAY-WARHD
Контейнер: AVI
Видео: 688x288 (2.39:1), 23.976 fps, XviD build 65 ~794 kbps avg, 0.17 bit/pixel
Аудио: 48 kHz, MPEG Layer 3, 2 ch, ~128.00 kbps avg-Сравнениеhttp://torrentfilm.net/forum/viewtopic.php?t=237030 http://screenshotcomparison.com/comparison/83853
-

MediaInfo

General
Complete name                            : E:\Catch.and.Release.2006.BDRip.744.MVO.All.Films.avi
Format                                   : AVI
Format/Info                              : Audio Video Interleave
File size                                : 744 MiB
Duration                                 : 1h 51mn
Overall bit rate                         : 932 Kbps
Movie name                               : Catch.and.Release.2006.BDRip.744.MVO.All.Films
Director                                 : DIABLO93
Genre                                    : Comedy/Romance
Writing application                      : VirtualDubMod 1.5.10.3 | www.virtualdub-fr.org || (build 2550/release)
Original source form/Name                : Movie
Copyright                                : Rutracker.org (R.G. All Films)
Video
ID                                       : 0
Format                                   : MPEG-4 Visual
Format profile                           : Advanced Simple@L5
Format settings, BVOP                    : 2
Format settings, QPel                    : No
Format settings, GMC                     : No warppoints
Format settings, Matrix                  : Custom
Codec ID                                 : XVID
Codec ID/Hint                            : XviD
Duration                                 : 1h 51mn
Bit rate                                 : 795 Kbps
Width                                    : 688 pixels
Height                                   : 288 pixels
Display aspect ratio                     : 2.40:1
Frame rate                               : 23.976 fps
Color space                              : YUV
Chroma subsampling                       : 4:2:0
Bit depth                                : 8 bits
Scan type                                : Progressive
Compression mode                         : Lossy
Bits/(Pixel*Frame)                       : 0.167
Stream size                              : 634 MiB (85%)
Writing library                          : XviD 65
Audio
ID                                       : 1
Format                                   : MPEG Audio
Format version                           : Version 1
Format profile                           : Layer 3
Mode                                     : Joint stereo
Mode extension                           : MS Stereo
Codec ID                                 : 55
Codec ID/Hint                            : MP3
Duration                                 : 1h 51mn
Bit rate mode                            : Constant
Bit rate                                 : 128 Kbps
Channel(s)                               : 2 channels
Sampling rate                            : 48.0 KHz
Compression mode                         : Lossy
Stream size                              : 102 MiB (14%)
Alignment                                : Aligned on interleaves
Interleave, duration                     : 42 ms (1.00 video frame)
Interleave, preload duration             : 504 ms

-

Сэмпл[url=http://multi-up.com/986832][color=indigo][font="Georgia

Скачать[/url]Скриншоты"]
Релиз группы:
-
[Профиль] [ЛС]

Создавать темы 06-Авг-2015 23:06 (спустя 11 месяцев 10 дней)

Топик был перенесен из форума Фильмы до 2014 года в форум Фильмы до 2012 года
sergej644
 
Показать сообщения:    

Текущее время: Сегодня 10:52

Часовой пояс: GMT



Вы не можете начинать темы
Вы не можете отвечать на сообщения
Вы не можете редактировать свои сообщения
Вы не можете удалять свои сообщения
Вы не можете голосовать в опросах
Вы не можете прикреплять файлы к сообщениям
Вы не можете скачивать файлы