Коттедж / Западня / The Cottage (Пол Эндрю Уильямс / Paul Andrew Williams) [2008, Великобритания, ужасы, триллер, комедия, криминал, DVDRip-AVC] VO (Максим Логинофф) + Sub Eng + Original Eng

 
Автор Сообщение

TorrentFilm ®

Пол:

Стаж: 2 года

Сообщений: 7741



Награды: Нет

Торрент-статистика

Создавать темы 31-Июл-2015 00:07

[Цитировать]

Коттедж / Западня / The Cottage
Страна: Великобритания
Жанр: ужасы, триллер, комедия, криминал
Год выпуска: 2008
Продолжительность: 01:31:33
Перевод: Одноголосый закадровый Максим Логинофф
Cубтитры: английские
Режиссер: Пол Эндрю Уильямс / Paul Andrew Williams
В ролях: Энди Серкис, Рис Шерсмит, Дженнифер Эллисон, Стив О’Доннелл, Джеймс Биерман, Кэт Мичер, Дэнни Нуссбаум, Логан Вонг, Джонатан Чан-Пинсли, Саймон Шатцбергер...
Описание: Два незадачливых брата похитили дочь известного мафиози. В ожидании выкупа они привезли её в старый коттедж, расположенный в глухом районе Англии. Все бы хорошо, но мафия пронюхала, где их искать, заложница оказалось не подарок, а местный фермер оказался не вполне нормальным.
Доп. информация: Перевод собран с чистого голоса.
Сэмпл: http://multi-up.com/1060302
Качество видео: DVDRip-AVC Исходник
Формат видео: MKV
Видео: 720x364 (2.35:1) @ 854x364, 23.976 fps, AVC, ~1400 Kbps, 0.223 bits/pixel
Аудио 1: Russian, 48.0 KHz, AC3, 6 ch, 448 Kbps - Максим Логинофф
Аудио 2: English, 48.0 KHz, AC3, 6 ch, 448 Kbps

Log

avs4x264.exe: -L x264_64.exe --pass 2 --bitrate 1400 --preset medium --ref 10 --deblock -1:-1 --merange 32 --bframes 10 --direct auto --b-adapt 2 --trellis 2 --no-fast-pskip --psy-rd 1.00:0.10 --partitions all --subme 10 --me umh --rc-lookahead 50 --sar 32:27 --stats
raw [info]: 720x364p 32:27 @ 24000/1001 fps (cfr)
x264 [info]: using SAR=32/27
x264 [info]: using cpu capabilities: MMX2 SSE2Fast LZCNT
x264 [info]: profile High, level 3.1
x264 [info]: frame I:1026 Avg QP: 9.95 size: 51523
x264 [info]: frame P:27651 Avg QP:12.68 size: 18664
x264 [info]: frame B:103016 Avg QP:15.76 size: 3809
x264 [info]: consecutive B-frames: 1.8% 2.2% 9.1% 14.5% 18.9% 39.9% 9.1% 1.7% 1.3% 0.5% 0.9%
x264 [info]: mb I I16..4: 14.3% 57.3% 28.4%
x264 [info]: mb P I16..4: 1.5% 12.7% 2.1% P16..4: 30.5% 23.0% 21.7% 1.2% 0.9% skip: 6.3%
x264 [info]: mb B I16..4: 0.1% 0.9% 0.1% B16..8: 32.6% 11.8% 3.5% direct: 6.3% skip:44.6% L0:42.8% L1:41.0% BI:16.2%
x264 [info]: 8x8 transform intra:75.2% inter:47.1%
x264 [info]: direct mvs spatial:97.7% temporal:2.3%
x264 [info]: coded y,uvDC,uvAC intra: 89.9% 93.1% 84.9% inter: 23.2% 23.5% 13.2%
x264 [info]: i16 v,h,dc,p: 30% 9% 27% 34%
x264 [info]: i8 v,h,dc,ddl,ddr,vr,hd,vl,hu: 16% 10% 18% 8% 9% 10% 8% 11% 11%
x264 [info]: i4 v,h,dc,ddl,ddr,vr,hd,vl,hu: 16% 8% 7% 9% 13% 14% 11% 11% 11%
x264 [info]: i8c dc,h,v,p: 50% 19% 18% 13%
x264 [info]: Weighted P-Frames: Y:4.4% UV:2.2%
x264 [info]: ref P L0: 43.9% 5.9% 18.5% 7.5% 6.8% 4.7% 4.5% 2.7% 2.7% 2.3% 0.4% 0.0%
x264 [info]: ref B L0: 74.4% 12.6% 4.7% 2.8% 1.9% 1.5% 1.3% 0.6% 0.3%
x264 [info]: ref B L1: 93.3% 6.7%
x264 [info]: kb/s:1400.10
x264 [total]: encoded 131693 frames, 16.98 fps, 1400.10 kb/s

MediaInfo

General
Unique ID : 174504788422601346513219888445583176100 (0x83486655C46BDFB3B9205AB40DD6B1A4)
Complete name : C:\The Cottage.mkv
Format : Matroska
Format version : Version 4 / Version 2
File size : 1.47 GiB
Duration : 1h 31mn
Overall bit rate : 2 298 Kbps
Encoded date : UTC 2015-07-27 19:44:28
Writing application : mkvmerge v8.1.0 ('Psychedelic Postcard') 64bit
Writing library : libebml v1.3.1 + libmatroska v1.4.2
DURATION : 01:23:12.615000000
NUMBER_OF_FRAMES : 840
NUMBER_OF_BYTES : 26144
_STATISTICS_WRITING_APP : mkvmerge v8.1.0 ('Psychedelic Postcard') 64bit
_STATISTICS_WRITING_DATE_UT : 2015-07-27 19:44:28
_STATISTICS_TAGS : BPS DURATION NUMBER_OF_FRAMES NUMBER_OF_BYTES
Video
ID : 1
Format : AVC
Format/Info : Advanced Video Codec
Format profile : High@L3.1
Format settings, CABAC : Yes
Format settings, ReFrames : 10 frames
Codec ID : V_MPEG4/ISO/AVC
Duration : 1h 31mn
Bit rate : 1 400 Kbps
Width : 720 pixels
Height : 364 pixels
Display aspect ratio : 2.35:1
Original display aspect rat : 2.35:1
Frame rate mode : Constant
Frame rate : 23.976 fps
Color space : YUV
Chroma subsampling : 4:2:0
Bit depth : 8 bits
Scan type : Progressive
Bits/(Pixel*Frame) : 0.223
Stream size : 888 MiB (59%)
Writing library : x264 core 146 r2538 121396c
Encoding settings : cabac=1 / ref=10 / deblock=1:-1:-1 / analyse=0x3:0x133 / me=umh / subme=10 / psy=1 / psy_rd=1.00:0.10 / mixed_ref=1 / me_range=32 / chroma_me=1 / trellis=2 / 8x8dct=1 / cqm=0 / deadzone=21,11 / fast_pskip=0 / chroma_qp_offset=-3 / threads=6 / lookahead_threads=1 / sliced_threads=0 / nr=0 / decimate=1 / interlaced=0 / bluray_compat=0 / constrained_intra=0 / bframes=10 / b_pyramid=2 / b_adapt=2 / b_bias=0 / direct=3 / weightb=1 / open_gop=0 / weightp=2 / keyint=250 / keyint_min=23 / scenecut=40 / intra_refresh=0 / rc_lookahead=50 / rc=2pass / mbtree=1 / bitrate=1400 / ratetol=1.0 / qcomp=0.60 / qpmin=0 / qpmax=69 / qpstep=4 / cplxblur=20.0 / qblur=0.5 / ip_ratio=1.40 / aq=1:1.00
Language : English
Default : Yes
Forced : No
Audio #1
ID : 2
Format : AC-3
Format/Info : Audio Coding 3
Mode extension : CM (complete main)
Format settings, Endianness : Big
Codec ID : A_AC3
Duration : 1h 31mn
Bit rate mode : Constant
Bit rate : 448 Kbps
Channel(s) : 6 channels
Channel positions : Front: L C R, Side: L R, LFE
Sampling rate : 48.0 KHz
Compression mode : Lossy
Stream size : 293 MiB (19%)
Title : Максим Логинофф
Language : Russian
Default : Yes
Forced : No
Audio #2
ID : 3
Format : AC-3
Format/Info : Audio Coding 3
Mode extension : CM (complete main)
Format settings, Endianness : Big
Codec ID : A_AC3
Duration : 1h 31mn
Bit rate mode : Constant
Bit rate : 448 Kbps
Channel(s) : 6 channels
Channel positions : Front: L C R, Side: L R, LFE
Sampling rate : 48.0 KHz
Compression mode : Lossy
Stream size : 293 MiB (19%)
Language : English
Default : No
Forced : No
Text
ID : 4
Format : UTF-8
Codec ID : S_TEXT/UTF8
Codec ID/Info : UTF-8 Plain Text
Language : English
Default : No
Forced : No
Menu
00:00:00.000 : :Chapter 01
00:08:02.868 : :Chapter 02
00:15:28.068 : :Chapter 03
00:19:53.268 : :Chapter 04
00:27:50.435 : :Chapter 05
00:33:59.869 : :Chapter 06
00:43:55.203 : :Chapter 07
00:49:51.603 : :Chapter 08
00:56:38.071 : :Chapter 09
01:03:22.872 : :Chapter 10
01:11:11.673 : :Chapter 11
01:19:18.806 : :Chapter 12

Скриншоты

[Профиль] [ЛС]

Создавать темы 06-Авг-2015 22:23 (спустя 6 дней)

Топик был перенесен из форума Фильмы до 2014 года в форум Фильмы до 2012 года
sergej644
 

Создавать темы 12-Июн-2016 08:52 (спустя 10 месяцев 12 дней)

Топик был перенесен из форума Фильмы 2011 года в форум Фильмы 2006-2008 года
Russian Mafia
 
Показать сообщения:    

Текущее время: Сегодня 04:29

Часовой пояс: GMT



Вы не можете начинать темы
Вы не можете отвечать на сообщения
Вы не можете редактировать свои сообщения
Вы не можете удалять свои сообщения
Вы не можете голосовать в опросах
Вы не можете прикреплять файлы к сообщениям
Вы не можете скачивать файлы