Котовский (Александр Файнциммер) [1942, военный, биография, история] DVDRip

 
Автор Сообщение

BOSS ®

Пол:

Стаж: 2 года 1 месяц

Сообщений: 3735

Откуда: ODESSA



Награды: 20 (Подробнее)

Top Seeder 2 (Количество: 1) Mega Seeder 4 (Количество: 1) Top Keeper 1 (Количество: 1)
Торрент-статистика

Создавать темы 27-Фев-2015 10:37

[Цитировать]

Страна: СССР
Производство: Мосфильм, ЦОКС
Жанр: военный, биография, история
Год выпуска: 1942
Продолжительность: 01:07:46
Перевод: Не требуется
Cубтитры: нет
Оригинальная аудиодорожка: русский
Режиссер: Александр Файнциммер
В ролях:
Николай Мордвинов, Василий Ванин, Николай Крючков, Вера Марецкая, Михаил Астангов, Константин Сорокин, Иван Клюквин, Елизавета Кузюрина, М. Гродский, Оскар Строк...
Описание:
Фильм о легендарном герое Гражданской войны Григории Ивановиче Котовском, прошедшем большой революционный путь и ставшим признанным военным командиром кавалерийских войск: комдивом, комбригом, комполка. Шесть раз он бежал из тюрьмы, был приговорен к смертной казни и вновь бежал, чтобы стать одним из самых пламенных воинов революции. Его знаменитая конная бригада билась с врагом под Киевом и Белой Церковью, у Николаева и Одессы, и нигде не знала поражений...- -Источник: DVD5 R5
Качество видео: DVDRip
Формат видео: AVI
Видео: 688x512 (4:3), 25 fps, XviD ~ 1336 kbps avg, 0.152 bit/pixel
Аудио: 48 kHz, Dolby Digital AC3 2.0, 192 kbps

MediaInfo

Общее
Полное имя : Kotovskiy.1942.DVDRip_[New-team]_by_AVP_Studio.avi
Формат : AVI
Формат/Информация : Audio Video Interleave
Размер файла : 745 Мбайт
Продолжительность : 1 ч. 7 м.
Общий поток : 1538 Кбит/сек
Программа кодирования : VirtualDubModRus 1.5.10.2 (build 2542/release)
Библиотека кодирования : VirtualDubMod build 2542/release
Видео
Идентификатор : 0
Формат : MPEG-4 Visual
Профиль формата : Advanced Simple@L5
Параметр BVOP формата : 1
Параметр QPel формата : Нет
Параметр GMC формата : Без точки перехода
Параметр матрицы формата : Выборочная
Идентификатор кодека : XVID
Идентификатор кодека/Подсказка : XviD
Продолжительность : 1 ч. 7 м.
Битрейт : 1336 Кбит/сек
Ширина : 688 пикселей
Высота : 512 пикселей
Соотношение сторон : 4:3
Частота кадров : 25,000 кадров/сек
Цветовое пространство : YUV
Субдискретизация насыщенности : 4:2:0
Битовая глубина : 8 бит
Тип развёртки : Прогрессивная
Метод сжатия : С потерями
Бит/(Пиксели*Кадры) : 0.152
Размер потока : 648 Мбайт (87%)
Библиотека кодирования : XviD 73
Аудио
Идентификатор : 1
Формат : AC-3
Формат/Информация : Audio Coding 3
Расширение режима : CM (complete main)
Параметр Endianness формата : Big
Идентификатор кодека : 2000
Продолжительность : 1 ч. 7 м.
Вид битрейта : Постоянный
Битрейт : 192 Кбит/сек
Каналы : 2 канала
Расположение каналов : Front: L R
Частота : 48,0 КГц
Битовая глубина : 16 бит
Метод сжатия : С потерями
Размер потока : 93,1 Мбайт (12%)
Выравнивание : Разделение по промежуткам
Продолжительность промежутка : 40 мс. (1,00 видеокадр)
Время предзагрузки промежутка : 500 мс

Скриншоты

[Профиль] [ЛС]

Создавать темы 06-Авг-2015 22:00 (спустя 5 месяцев 7 дней)

Топик был перенесен из форума Кино СССР в форум Кино СССР
sergej644
 
Кто просматривает тему:

Форум Тема Автор Размер
R.G.TorrentFilm Video Братья из Гримсби / Grimsby (Луи Летерье) [2016 г., боевик, комедия, HDRip-AVC] [AVO (Котов)] Bathory 746 MB
Фильмы 2015 года Всё, что мне осталось от тебя / Senden Bana Kalan (Абдулла Огуз) [2015 г., драма, DVDRip-AVC] [DVO (Раим Закиров, Ирина Котова)] Bathory 1.46 GB
Путешествия и приключения Долина молчаливых призраков (Джеймс Оливер Кервуд) [2014, Приключения, аудиокнига, MP3, 96 kbps, Александр Котов] Magnat 271 MB
R.G.TorrentFilm Video Заражение / Contamination (Луиджи Коцци) [1980 г., ужасы, фантастика, HDRip] [VO (Котов)] Bathory 1.46 GB
Мировая классика Леопольд фон Захер-Мазох - Демонические женщины [Александр Котов, 2014] Magnat 232 MB
Фильмы 2015 года Любимый и опасный / Sevimli Tehlikeli (Озджан Дениз / Özcan Deniz) [2015, Турция, Мелодрама, драма, комедия, WEBRip] DVO (Раим Закиров, Ирина Котова) TorrentFilm 1.31 GB
Фильмы 2009 года Самое главное / The Be All and End All (Брюс Уэбб / Bruce Webb) [2009, Великобритания, комедия, драма, DVDRip] (Тарас Котов) + Sub Rus + Original Eng reversefile 702 MB
Секреты / Тайны Тайны истории: Сокровища нефритовой империи (Новая терракотовая армия) / Secret History. China – Treasures of the Jade Empire (Richard Max) [2015 г., Документальный, археолог... skorpionN 1.18 GB
Показать сообщения:    

Текущее время: Сегодня 10:06

Часовой пояс: GMT



Вы не можете начинать темы
Вы не можете отвечать на сообщения
Вы не можете редактировать свои сообщения
Вы не можете удалять свои сообщения
Вы не можете голосовать в опросах
Вы не можете прикреплять файлы к сообщениям
Вы не можете скачивать файлы