Костяной томагавк / Bone Tomahawk (С. Крэйг Залер / S. Craig Zahler) [2015, США, ужасы, триллер, драма, BDRip-AVC] Dub + Original (Eng) + Sub (Eng)

 
Автор Сообщение

TorrentFilm ®

Пол:

Стаж: 2 года

Сообщений: 7741



Награды: Нет

Торрент-статистика

Создавать темы 05-Янв-2016 00:10

[Цитировать]

Костяной томагавк
Bone Tomahawk
«John Brooder: An armed gentleman»

Страна: США
Жанр: ужасы, триллер, драма, приключения, вестерн
Год выпуска: 2015
Продолжительность: 02:12:04
Перевод: Профессиональный (полное дублирование) [Лицензия iTunes]
Субтитры: английские (полные, SDH)
Оригинальная аудиодорожка: Английский
Режиссер: С. Крэйг Залер / S. Craig Zahler
В ролях: Курт Рассел, Патрик Уилсон, Мэттью Фокс, Ричард Дженкинс, Лили Симмонс, Эван Йоникит, Дэвид Аркетт, Фред Меламед, Сид Хэйг, Маэстро Харрелл, Джеймс Толкан, Кэтрин Моррис
Описание:
Четверо мужчин отправляются в отдаленные земли Дикого Запада, чтобы спасти группу пленных из пещер каннибалов.
Автор рипа: Stalker oK
Сэмпл
Качество видео: BDRip-AVC [kinozal / Blu-ray Remux / 1080p]
Формат видео: MKV
Видео кодек: AVC
Аудио кодек: AC3
Видео: 2258 Кбит/сек, 1152*482 (2,40:1), в 23,976 (24000/1001) кадра/сек, AVC
Аудио #1: Russian, 384 Кбит/сек, 48,0 КГц, 6 каналов, AC-3
Аудио #2: English, 448 Кбит/сек, 48,0 КГц, 6 каналов, AC-3
Навигация по главам: есть

MediaInfo

Общее
Уникальный идентификатор : 222818502517287780234718036837654847042 (0xA7A14859884E71EB87798A61EBF7DE42)
Полное имя : M:\Rips\Bone Tomahawk\Bone.Tomahawk.2015.BDRip-AVC.Dub.2.91Gb.stalkerok.new-team.mkv
Формат : Matroska
Версия формата : Version 4 / Version 2
Размер файла : 2,85 Гбайт
Продолжительность : 2 ч. 12 м.
Общий поток : 3089 Кбит/сек
Название фильма : Bone Tomahawk (2015) (New-Team) (Rip by Stalker oK)
Дата кодирования : UTC 2016-01-01 20:03:20
Программа кодирования : mkvmerge v8.6.1 ('Flying') 64bit
Библиотека кодирования : libebml v1.3.3 + libmatroska v1.4.4
Видео
Идентификатор : 4
Формат : AVC
Формат/Информация : Advanced Video Codec
Профиль формата : High@L4.1
Параметр CABAC формата : Да
Параметр ReFrames формата : 14 кадров
Идентификатор кодека : V_MPEG4/ISO/AVC
Продолжительность : 2 ч. 12 м.
Битрейт : 2258 Кбит/сек
Ширина : 1152 пикселя
Высота : 482 пикселя
Соотношение сторон : 2,40:1
Режим частоты кадров : Постоянный
Частота кадров : 23,976 (24000/1001) кадра/сек
Цветовое пространство : YUV
Субдискретизация насыщенности : 4:2:0
Битовая глубина : 8 бит
Тип развёртки : Прогрессивная
Бит/(Пиксели*Кадры) : 0.170
Размер потока : 2,08 Гбайт (73%)
Заголовок : Bone Tomahawk (2015) (New-Team) (Rip by Stalker oK)
Библиотека кодирования : x264 core 148 r2638kMod 7599210
Настройки программы : cabac=1 / ref=14 / deblock=1:-3:-3 / analyse=0x3:0x133 / me=umh / subme=11 / psy=1 / fade_compensate=0.00 / psy_rd=1.00:0.10 / mixed_ref=1 / me_range=48 / chroma_me=1 / trellis=2 / 8x8dct=1 / cqm=0 / deadzone=21,11 / fast_pskip=0 / chroma_qp_offset=-3 / threads=12 / lookahead_threads=3 / sliced_threads=0 / nr=0 / decimate=0 / interlaced=0 / bluray_compat=0 / constrained_intra=0 / fgo=0 / bframes=15 / b_pyramid=2 / b_adapt=2 / b_bias=0 / direct=3 / weightb=1 / open_gop=0 / weightp=2 / keyint=240 / keyint_min=23 / scenecut=40 / intra_refresh=0 / rc_lookahead=60 / rc=2pass / mbtree=0 / bitrate=2258 / ratetol=1.0 / qcomp=0.70 / qpmin=0 / qpmax=69 / qpstep=4 / cplxblur=20.0 / qblur=0.5 / vbv_maxrate=50000 / vbv_bufsize=62500 / nal_hrd=none / filler=0 / ip_ratio=1.40 / pb_ratio=1.30 / aq=3:0.90
Default : Да
Forced : Нет
Аудио #1
Идентификатор : 1
Формат : AC-3
Формат/Информация : Audio Coding 3
Расширение режима : CM (complete main)
Параметр Endianness формата : Big
Идентификатор кодека : A_AC3
Продолжительность : 2 ч. 12 м.
Вид битрейта : Постоянный
Битрейт : 384 Кбит/сек
Каналы : 6 каналов
Расположение каналов : Front: L C R, Side: L R, LFE
Частота : 48,0 КГц
Частота кадров : 31,250 кадров/сек (1536 spf)
Метод сжатия : С потерями
Размер потока : 363 Мбайт (12%)
Заголовок : iTunes
Язык : Russian
Default : Да
Forced : Нет
Аудио #2
Идентификатор : 5
Формат : AC-3
Формат/Информация : Audio Coding 3
Расширение режима : CM (complete main)
Параметр Endianness формата : Big
Идентификатор кодека : A_AC3
Продолжительность : 2 ч. 12 м.
Вид битрейта : Постоянный
Битрейт : 448 Кбит/сек
Каналы : 6 каналов
Расположение каналов : Front: L C R, Side: L R, LFE
Частота : 48,0 КГц
Частота кадров : 31,250 кадров/сек (1536 spf)
Метод сжатия : С потерями
Размер потока : 423 Мбайт (15%)
Язык : English
Default : Нет
Forced : Нет
Текст #1
Идентификатор : 2
Формат : UTF-8
Идентификатор кодека : S_TEXT/UTF8
Идентификатор кодека/Информация : UTF-8 Plain Text
Продолжительность : 2 ч. 3 м.
Битрейт : 39 бит/сек
Count of elements : 1314
Размер потока : 36,1 Кбайт (0%)
Заголовок : English
Язык : English
Default : Нет
Forced : Нет
Текст #2
Идентификатор : 3
Формат : UTF-8
Идентификатор кодека : S_TEXT/UTF8
Идентификатор кодека/Информация : UTF-8 Plain Text
Продолжительность : 2 ч. 3 м.
Битрейт : 44 бит/сек
Count of elements : 1480
Размер потока : 40,2 Кбайт (0%)
Заголовок : English SDH
Язык : English
Default : Нет
Forced : Нет
Меню
00:00:00.000 : en:Buddy and Purvis
00:09:52.926 : en:Sheriff Hunt
00:24:26.340 : en:Hunt and Arthur
00:34:52.382 : en:A Rescue Plan
00:46:55.271 : en:The First Night
01:02:34.793 : en:Attacked
01:12:38.646 : en:Another Setback
01:27:47.512 : en:Prepare for Battle
01:34:12.772 : en:Deputy Nick
01:46:46.025 : en:Arthur to the Rescue
01:56:19.389 : en:A Last Fight for Freedom
02:04:48.398 : en:Credits

Скриншоты

[Профиль] [ЛС]
Кто просматривает тему:

Форум Тема Автор Размер
Отечественные мультфильмы Костя / Kostya (Антон Дьяков) [2012, мультфильм, чёрный юмор, WEBRip-AVC] TorrentFilm 56 MB
Фильмы (HD Rips | 720p, 1080p) Костяной томагавк / Bone Tomahawk (2015) WEB-DL 720p | L достали все 4.13 GB
Фильмы 2015 года Костяной томагавк / Bone Tomahawk (2015) WEB-DLRip | L достали все 1.46 GB
Фильмы 2015 года Костяной томагавк / Bone Tomahawk (С. Крэйг Залер / S. Craig Zahler) [2015, США, ужасы, триллер, драма, BDRip-AVC] Dub + Sub (Eng) TorrentFilm 1.46 GB
Фильмы 2015 года Костяной томагавк / Bone Tomahawk (С. Крэйг Залер / S. Craig Zahler) [2015, США, Ужасы, триллер, драма, приключения, вестерн, BDRip] Dub TorrentFilm 1.45 GB
Фильмы 2015 года Костяной томагавк / Bone Tomahawk (С. Крэйг Залер / S. Craig Zahler) [2015, США, ужасы, триллер, драма, приключения, вестерн, HDRip] Dub (iTunes) TorrentFilm 2.05 GB
Фильмы 2015 года Костяной томагавк / Bone Tomahawk (С. Крэйг Залер) [2015, Ужасы, вестерн] HDRip | iTunes BOSS 2.05 GB
Фантастика, фэнтези Роллинс Джеймс - Костяной лабиринт (2016) FB2 достали все 4 MB
Показать сообщения:    

Текущее время: Сегодня 20:58

Часовой пояс: GMT



Вы не можете начинать темы
Вы не можете отвечать на сообщения
Вы не можете редактировать свои сообщения
Вы не можете удалять свои сообщения
Вы не можете голосовать в опросах
Вы не можете прикреплять файлы к сообщениям
Вы не можете скачивать файлы