Костюм Санты / The Santa Suit (Роберт Вон / Robert Vaughn) [2010, Канада, фэнтези, комедия, SATRip] MVO

 
Автор Сообщение

TorrentFilm ®

Пол:

Стаж: 2 года

Сообщений: 7741



Награды: Нет

Торрент-статистика

Создавать темы 08-Мар-2015 00:01

[Цитировать]

Костюм Санты / The Santa Suit
Страна: Канада
Жанр: фэнтези, комедия
Год выпуска: 2010
Продолжительность: 01:25:21
Перевод: Профессиональный (многоголосый закадровый)
"Фильм переведен и озвучен SDI Media по заказу ТПО "Ред Медиа".
Cубтитры: нет
Режиссер: Роберт Вон / Robert Vaughn
В ролях: Кевин Сорбо, Розмари Дансмор, Сандра Колдуэлл, Джейсон Бликер, Кристиан Потенза
Описание: Генеральный директор компании "Хантер тойз" Дрейк Хантер превратил компанию своего отца в безжалостный, прибыльный бизнес. Хантер смотрит на все человечество сверху вниз. Снимаясь для обложек журналов в дорогом костюме и шикарных ботинках, он находится на вершине корпоративного успеха. Хантер презирает Рождество, все его проявления, чувства, и всё, что касается Рождества, кроме зеленых денег капающих в его карман. Хантеру пришёл в голову чрезвычайно подлый план в это Рождество. По всему городу разошлись переодетые Санты нашептывающие в уши мальчикам и девочками: "Это плохая игрушка, если это не от Хантера!" Но есть одна проблема: Санта наблюдает и ему не смешно. В один прекрасный момент Санта-Клаус превращает Дрейка в полного мужчину, с круглым лицом, большим животом и с длинной бородой. Теперь у Дрейка есть большая проблема: его ошибочно принимают за бродягу Криса Крэндела, вынужденного ютиться в приюте для бездомных. При отсутствии семьи и друзей, скучающих по нему, Дрейк, он же Крис, завязывает отношения с Нэнси, социальным работником. Теперь он должен работать в качестве Санты в торговом центре, чтобы заплатить за жилье. Там Дрейк знакомится с Джемой, девочкой из очень бедной семьи и узнает, что её мать работает в две смены в "Хантер тойз". Униженный и разбитый, Дрейк понимает, какую радость его игрушки могут принести детям во всем мире, и что компания должна заботиться о своих работниках. Веря в себя, Дрейк решает изменить к лучшему жизни других людей. Санта возвращает его обратно. Дрейка переполняют энергия и энтузиазм. Приближается Рождество, и на свете есть много снов, которые можно воплотить в реальность!
Доп. информация: За запись фильма спасибо alenavova
Сэмпл: https://yadi.sk/i/i-MPJok8exNhx
Качество видео: SATRip by alenavova
Формат видео: AVI
Видео: 720x400 (1.80:1), 25 fps, XviD build 50 ~2091 kbps avg, 0.29 bit/pixel
Аудио: 48 kHz, AC3 Dolby Digital, 2/0 (L,R) ch, ~192 kbps

MediaInfo

Костюм Санты - The Santa Suit [by alenavova].avi
Format : AVI
Format/Info : Audio Video Interleave
File size : 1.37 GiB
Duration : 1h 25mn
Overall bit rate : 2 294 Kbps
Movie name : Костюм Санты - The Santa Suit [by alenavova]
Director : by alenavova
Writing application : VirtualDubMod 1.5.10.3 | www.virtualdub-fr.org || (build 2550/release)
Copyright : Edich2
Comment : RuTracker.org
Video
ID : 0
Format : MPEG-4 Visual
Format profile : Advanced Simple@L5
Format settings, BVOP : 1
Format settings, QPel : No
Format settings, GMC : No warppoints
Format settings, Matrix : Default (MPEG)
Codec ID : XVID
Codec ID/Hint : XviD
Duration : 1h 25mn
Bit rate : 2 092 Kbps
Width : 720 pixels
Height : 400 pixels
Display aspect ratio : 16:9
Frame rate : 25.000 fps
Color space : YUV
Chroma subsampling : 4:2:0
Bit depth : 8 bits
Scan type : Progressive
Compression mode : Lossy
Bits/(Pixel*Frame) : 0.291
Stream size : 1.25 GiB (91%)
Writing library : XviD 1.2.1 (UTC 2008-12-04)
Audio
ID : 1
Format : AC-3
Format/Info : Audio Coding 3
Mode extension : CM (complete main)
Format settings, Endianness : Big
Codec ID : 2000
Duration : 1h 25mn
Bit rate mode : Constant
Bit rate : 192 Kbps
Channel(s) : 2 channels
Channel positions : Front: L R
Sampling rate : 48.0 KHz
Bit depth : 16 bits
Compression mode : Lossy
Stream size : 117 MiB (8%)
Alignment : Split accross interleaves
Interleave, duration : 40 ms (1.00 video frame)
Interleave, preload duration : 500 ms

Скриншоты


[Профиль] [ЛС]

Создавать темы 06-Авг-2015 22:42 (спустя 4 месяца 29 дней)

Топик был перенесен из форума Фильмы до 2014 года в форум Фильмы до 2012 года
sergej644
 

Создавать темы 12-Июн-2016 07:54 (спустя 1 год 3 месяца)

Топик был перенесен из форума Фильмы 2011 года в форум Фильмы 2010 года
Russian Mafia
 
Показать сообщения:    

Текущее время: Сегодня 06:11

Часовой пояс: GMT



Вы не можете начинать темы
Вы не можете отвечать на сообщения
Вы не можете редактировать свои сообщения
Вы не можете удалять свои сообщения
Вы не можете голосовать в опросах
Вы не можете прикреплять файлы к сообщениям
Вы не можете скачивать файлы