Костюм Санты / The Santa Suit (Роберт Вон / Robert Vaughn) [2010, Канада, фэнтези, комедия, DVB] MVO (SDI Media)

 
Автор Сообщение

TorrentFilm ®

Пол:

Стаж: 1 год 11 месяцев

Сообщений: 7741



Награды: Нет

Торрент-статистика

Создавать темы 05-Мар-2015 00:01

[Цитировать]

Костюм Санты / The Santa Suit
Страна: Канада
Жанр: фэнтези, комедия
Год выпуска: 2010
Продолжительность: 01:25:22
Перевод: Профессиональный (многоголосый закадровый) SDI Media по заказу ТПО "Ред Медиа"
Cубтитры: нет
Оригинальная аудиодорожка: нет
Режиссер: Роберт Вон / Robert Vaughn
В ролях: Кевин Сорбо, Розмари Дансмор, Сандра Колдуэлл, Джейсон Бликер, Кристиан Потенза
Описание: Генеральный директор компании "Хантер тойз" Дрейк Хантер превратил компанию своего отца в безжалостный, прибыльный бизнес. Хантер смотрит на все человечество сверху вниз. Снимаясь для обложек журналов в дорогом костюме и шикарных ботинках, он находится на вершине корпоративного успеха. Хантер презирает Рождество, все его проявления, чувства, и всё, что касается Рождества, кроме зеленых денег капающих в его карман. Хантеру пришёл в голову чрезвычайно подлый план в это Рождество. По всему городу разошлись переодетые Санты нашептывающие в уши мальчикам и девочками: "Это плохая игрушка, если это не от Хантера!" Но есть одна проблема: Санта наблюдает и ему не смешно. В один прекрасный момент Санта-Клаус превращает Дрейка в полного мужчину, с круглым лицом, большим животом и с длинной бородой. Теперь у Дрейка есть большая проблема: его ошибочно принимают за бродягу Криса Крэндела, вынужденного ютиться в приюте для бездомных. При отсутствии семьи и друзей, скучающих по нему, Дрейк, он же Крис, завязывает отношения с Нэнси, социальным работником. Теперь он должен работать в качестве Санты в торговом центре, чтобы заплатить за жилье. Там Дрейк знакомится с Джемой, девочкой из очень бедной семьи и узнает, что её мать работает в две смены в "Хантер тойз". Униженный и разбитый, Дрейк понимает, какую радость его игрушки могут принести детям во всем мире, и что компания должна заботиться о своих работниках. Веря в себя, Дрейк решает изменить к лучшему жизни других людей. Санта возвращает его обратно. Дрейка переполняют энергия и энтузиазм. Приближается Рождество, и на свете есть много снов, которые можно воплотить в реальность!
Семпл: http://sendfile.su/1091575
Качество видео: DVB
Формат видео: MPG
Видео: 720x576 (4:3) @ 768x576, 25.000 fps, MPEG-2 Video, ~2144 Kbps, 0.207 bits/pixel
Аудио: 48.0 KHz, MPEG-1 Audio layer 2, 2 ch, 192 Kbps

MediaInfo

General
Complete name : The Santa Suit 2010 Komedia MVO SDIMedia.mpg
Format : MPEG-PS
File size : 1.42 GiB
Duration : 1h 25mn
Overall bit rate mode : Variable
Overall bit rate : 2 383 Kbps
Video
ID : 224 (0xE0)
Format : MPEG Video
Format version : Version 2
Format profile : Main@Main
Format settings, BVOP : Yes
Format settings, Matrix : Custom
Format settings, GOP : Variable
Format settings, picture structure : Frame
Duration : 1h 25mn
Bit rate mode : Variable
Bit rate : 2 144 Kbps
Maximum bit rate : 15.0 Mbps
Width : 720 pixels
Height : 576 pixels
Display aspect ratio : 4:3
Frame rate : 25.000 fps
Standard : PAL
Color space : YUV
Chroma subsampling : 4:2:0
Bit depth : 8 bits
Scan type : Interlaced
Scan order : Top Field First
Compression mode : Lossy
Bits/(Pixel*Frame) : 0.207
Time code of first frame : 00:00:00:00
Time code source : Group of pictures header
Stream size : 1.28 GiB (90%)
Audio
ID : 192 (0xC0)
Format : MPEG Audio
Format version : Version 1
Format profile : Layer 2
Duration : 1h 25mn
Bit rate mode : Constant
Bit rate : 192 Kbps
Channel(s) : 2 channels
Sampling rate : 48.0 KHz
Compression mode : Lossy
Stream size : 117 MiB (8%)

Скриншоты

[Профиль] [ЛС]

Создавать темы 06-Авг-2015 22:42 (спустя 5 месяцев 1 день)

Топик был перенесен из форума Фильмы до 2014 года в форум Фильмы до 2012 года
sergej644
 

Создавать темы 12-Июн-2016 07:54 (спустя 1 год 3 месяца)

Топик был перенесен из форума Фильмы 2011 года в форум Фильмы 2010 года
Russian Mafia
 
Показать сообщения:    

Текущее время: Сегодня 02:43

Часовой пояс: GMT



Вы не можете начинать темы
Вы не можете отвечать на сообщения
Вы не можете редактировать свои сообщения
Вы не можете удалять свои сообщения
Вы не можете голосовать в опросах
Вы не можете прикреплять файлы к сообщениям
Вы не можете скачивать файлы