Космический полицейский / Space Cop (2016) BDRip 720p | L2

 
Автор Сообщение

Russian Mafia ®

Пол:

Стаж: 1 год 8 месяцев

Сообщений: 4252



Награды: 10 (Подробнее)

Top Releaser 4 (Количество: 1) Top Releaser 3 (Количество: 1) Mega Seeder 3 (Количество: 1)
Торрент-статистика

Создавать темы 10-Апр-2016 14:30

[Цитировать]

Информация о фильме
Название: Космический полицейский
Оригинальное название: Space Cop
Год выхода: 2016
Жанр: фантастика, боевик, комедия
Режиссер: Джей Бауман, Mike Stoklasa
В ролях: Рич Эванс, Mike Stoklasa, Жослин Риджли, Чайк Джонсон, Джей Бауман, Dale Jackson, Zach McLain, Дебора Клифтон, Бо Джонсон, Rick Pendzich
О фильме: Главные персонажи фильма, события которого происходят в будущем, — отважные и опытные парни из спецподразделения галактической полиции, задания которых состоят в том, чтобы защищать закон и поддерживать мир и порядок во всей вселенной. Занимаясь расследованием различных злодеяний, герои часто оказываются в рискованных ситуациях, из которых им успешно удается выпутаться.

Выпущено: США / Red Letter Media
Продолжительность: 01:42:12
Озвучивание: Любительское (двухголосое) [den904 & DeadSno]
Файл
Формат: MKV
Качество: BDRip 720p
Видео: MPEG-4 AVC, 5408 kb/s, 1280x544
Аудио: Russian: AC3, 192 kb/s (2 ch) / English: AC3, 256 kb/s (2 ch)

MI

Format : Matroska
Format version : Version 2
File size : 4.27 GiB
Duration : 1h 42mn
Overall bit rate : 5 975 Kbps
Encoded date : UTC 2016-04-10 12:19:24
Writing application : mkvmerge v7.8.0 ('River Man') 32bit built on Apr 3 2015 12:11:22
Writing library : libebml v1.3.1 + libmatroska v1.4.2
Video
ID : 1
Format : AVC
Format/Info : Advanced Video Codec
Format profile : High@L4.1
Format settings, CABAC : Yes
Format settings, ReFrames : 12 frames
Codec ID : V_MPEG4/ISO/AVC
Duration : 1h 42mn
Bit rate : 5 408 Kbps
Width : 1 280 pixels
Height : 544 pixels
Display aspect ratio : 2.35:1
Frame rate mode : Constant
Frame rate : 23.976 fps
Color space : YUV
Chroma subsampling : 4:2:0
Bit depth : 8 bits
Scan type : Progressive
Bits/(Pixel*Frame) : 0.324
Stream size : 3.86 GiB (91%)
Writing library : x264 core 142 r2479 dd79a61
Encoding settings : cabac=1 / ref=12 / deblock=1:-3:-3 / analyse=0x3:0x133 / me=tesa / subme=11 / psy=1 / psy_rd=1.00:0.00 / mixed_ref=1 / me_range=16 / chroma_me=1 / trellis=2 / 8x8dct=1 / cqm=0 / deadzone=21,11 / fast_pskip=0 / chroma_qp_offset=-2 / threads=6 / lookahead_threads=1 / sliced_threads=0 / nr=0 / decimate=1 / interlaced=0 / bluray_compat=0 / constrained_intra=0 / bframes=16 / b_pyramid=2 / b_adapt=2 / b_bias=0 / direct=3 / weightb=1 / open_gop=0 / weightp=2 / keyint=240 / keyint_min=24 / scenecut=40 / intra_refresh=0 / rc_lookahead=240 / rc=crf / mbtree=1 / crf=17.0 / qcomp=0.60 / qpmin=0 / qpmax=69 / qpstep=4 / vbv_maxrate=62500 / vbv_bufsize=78125 / crf_max=0.0 / nal_hrd=none / filler=0 / ip_ratio=1.40 / aq=2:1.00
Language : English
Default : Yes
Forced : No
Color range : Limited
Color primaries : BT.709
Transfer characteristics : BT.709
Matrix coefficients : BT.709
Audio #1
ID : 2
Format : AC-3
Format/Info : Audio Coding 3
Mode extension : CM (complete main)
Format settings, Endianness : Big
Codec ID : A_AC3
Duration : 1h 42mn
Bit rate mode : Constant
Bit rate : 192 Kbps
Channel(s) : 2 channels
Channel positions : Front: L R
Sampling rate : 48.0 KHz
Bit depth : 16 bits
Compression mode : Lossy
Delay relative to video : -83ms
Stream size : 140 MiB (3%)
Language : Russian
Default : Yes
Forced : No
Audio #2
ID : 3
Format : AC-3
Format/Info : Audio Coding 3
Mode extension : CM (complete main)
Format settings, Endianness : Big
Codec ID : A_AC3
Duration : 1h 42mn
Bit rate mode : Constant
Bit rate : 256 Kbps
Channel(s) : 2 channels
Channel positions : Front: L R
Sampling rate : 48.0 KHz
Bit depth : 16 bits
Compression mode : Lossy
Delay relative to video : -83ms
Stream size : 187 MiB (4%)
Language : English
Default : No
Forced : No
Menu
00:00:00.000 : :Chapter 1
00:06:33.685 : :Chapter 2
00:12:59.070 : :Chapter 3
00:16:43.294 : :Chapter 4
00:21:40.591 : :Chapter 5
00:29:35.440 : :Chapter 6
00:36:02.452 : :Chapter 7
00:45:34.023 : :Chapter 8
00:53:58.527 : :Chapter 9
01:01:33.982 : :Chapter 10
01:10:13.501 : :Chapter 11
01:14:10.112 : :Chapter 12
01:21:08.155 : :Chapter 13
01:27:08.515 : :Chapter 14
01:30:37.724 : :Chapter 15
01:37:10.116 : :Chapter 16
01:40:40.701 : :Chapter 17
01:42:09.415 : :Chapter 18

Скриншоты



[Профиль] [ЛС]
Кто просматривает тему:

Форум Тема Автор Размер
National Geographic NG: Космическое путешествие "Хаббла" / Hubble's Cosmic Journey (Christopher Riley) [2014 г., Документальный, космос, HDTVRip 720p] skorpionN 1.41 GB
Action Space Trader: Merchant Marine / Космический Торговец [L] [RUS / ENG] (2008) TorrentFilm 125 MB
Игры [Android] Galaxy on Fire 2™ HD + Galaxy on Fire 2™ THD v1.0.3 - 2.0.1 [Космический симулятор, RUS] Richi Keeper 970 MB
Фантастика и фэнтези Авторский сборник - Космические байки (2014) MP3 Swager 374 MB
Фантастика, фэнтези Алекс Орлов (Вадим Дарищев) - Сборник произведений (63 книги) [1998-2015, Боевая фантастика, Космическая фантастика, Фэнтези, FB2] обновлено 13.02.2016 Garik014 81 MB
Фантастика, фэнтези Александр Золотько - Сборник произведений (41 книга) [1998-2016, Боевая фантастика, Детективная фантастика, Космическая фантастика, Фэнтези, Боевик, FB2] обновлено 14.02.2016 Garik014 48 MB
Фантастика, фэнтези Алексей Евтушенко - Сборник произведений (49 книг) 2000-2016 [Боевая фантастика, Космическая фантастика, Исторические приключения, Детективная фантастика, Фэнтези, FB2] обновлено 04.03.2016 Garik014 26 MB
Фантастика, фэнтези Алексей Чижовский - Сборник произведений (9 книг) [2013-2015, Боевая фантастика, Космическая фантастика, Фэнтези, FB2] Garik014 13 MB
Показать сообщения:    

Текущее время: Сегодня 00:46

Часовой пояс: GMT



Вы не можете начинать темы
Вы не можете отвечать на сообщения
Вы не можете редактировать свои сообщения
Вы не можете удалять свои сообщения
Вы не можете голосовать в опросах
Вы не можете прикреплять файлы к сообщениям
Вы не можете скачивать файлы