Космический мусор / IMAX - Space Junk (Мелисса Р. Баттс / Melissa R. Butts) [2012, документальный, BDRip 720p]

 
Автор Сообщение

TorrentFilm ®

Пол:

Стаж: 2 года

Сообщений: 7741



Награды: Нет

Торрент-статистика

Создавать темы 30-Дек-2014 00:00

[Цитировать]

Космический мусор / IMAX - Space Junk
-Год выпуска: 2012
Страна: США (Melrae Pictures, Red Barn Productions)
Жанр: Документальный, короткометражка
Продолжительность: 00:37:25
Перевод: Профессиональный двухголосый закадровый (студия "Омикрон")
Режиссер: Мелисса Р. Баттс / Melissa R. Butts
Русские субтитры: нет-Описание: Спустя 50 лет после того, как человечество покорило космос, образовалось тревожащее наследие - разрастающееся орбитальное кольцо обломков, угрожающее безопасности орбит Земли. Возникла необходимость предпринять действия, направленные на очистку орбиты нашей планеты...-Релиз: -Тип релиза: BDRip 720p
Контейнер: MKV
Видео: 1280x720 at 23.976 fps, High@L4.1, ~7223 kbps avg
Аудио: Russian: 48 kHz, DTS, 3/2 (L,C,R,l,r) + LFE ch ~1509.00 kbps avg
Аудио 2: English: 48 kHz, DTS, 3/2 (L,C,R,l,r) + LFE ch ~1509.00 kbps avg
Субтитры: English
Сэмпл-Раздача от группы: -

Скриншоты

MediaInfo

General
Unique ID : 196905396456355848577291689892856339483 (0x94229994A9D532189912F3BFBDAA1C1B)
Complete name : D:\Фильмы\Space.Junk.2012.720p.BluRay.Rus.Eng.HDCLUB.mkv
Format : Matroska
Format version : Version 2
File size : 2.72 GiB
Duration : 37mn 25s
Overall bit rate : 10.4 Mbps
Movie name : Space Junk (2012) - Release for HDCLUB
Encoded date : UTC 2014-04-23 19:10:09
Writing application : mkvmerge v3.2.0 ('Beginnings') built on Feb 12 2010 16:46:17
Writing library : libebml v0.7.9 + libmatroska v0.8.1
Video
ID : 1
Format : AVC
Format/Info : Advanced Video Codec
Format profile : High@L4.1
Format settings, CABAC : Yes
Format settings, ReFrames : 8 frames
Codec ID : V_MPEG4/ISO/AVC
Duration : 37mn 25s
Bit rate : 7 194 Kbps
Width : 1 280 pixels
Height : 720 pixels
Display aspect ratio : 16:9
Frame rate mode : Constant
Frame rate : 23.976 fps
Color space : YUV
Chroma subsampling : 4:2:0
Bit depth : 8 bits
Scan type : Progressive
Bits/(Pixel*Frame) : 0.326
Stream size : 1.88 GiB (69%)
Title : Release for HDCLUB
Writing library : x264 core 133 r2334 a3ac64b
Encoding settings : cabac=1 / ref=8 / deblock=1:-3:-3 / analyse=0x3:0x113 / me=umh / subme=10 / psy=1 / psy_rd=1.00:0.08 / mixed_ref=1 / me_range=24 / chroma_me=1 / trellis=2 / 8x8dct=1 / cqm=0 / deadzone=21,11 / fast_pskip=0 / chroma_qp_offset=-3 / threads=6 / lookahead_threads=1 / sliced_threads=0 / nr=0 / decimate=0 / interlaced=0 / bluray_compat=0 / constrained_intra=0 / bframes=8 / b_pyramid=2 / b_adapt=2 / b_bias=0 / direct=3 / weightb=1 / open_gop=0 / weightp=2 / keyint=240 / keyint_min=23 / scenecut=40 / intra_refresh=0 / rc_lookahead=50 / rc=crf / mbtree=1 / crf=14.0 / qcomp=0.70 / qpmin=10 / qpmax=51 / qpstep=4 / vbv_maxrate=50000 / vbv_bufsize=62500 / crf_max=0.0 / nal_hrd=none / ip_ratio=1.40 / aq=1:0.80 / zones=28,52,crf=12/220,341,crf=12/1409,1445,crf=12/1678,1701,crf=12/2727,2806,crf=12/9109,9517,crf=12/9518,10906,crf=12/29588,29855,crf=12/34933,34990,crf=12/35421,36021,crf=12/37631,38100,crf=12/39181,39465,crf=12/49937,49977,crf=12
Language : English
Default : No
Forced : No
Audio #1
ID : 2
Format : DTS
Format/Info : Digital Theater Systems
Mode : 16
Format settings, Endianness : Big
Codec ID : A_DTS
Duration : 37mn 25s
Bit rate mode : Constant
Bit rate : 1 509 Kbps
Channel(s) : 6 channels
Channel positions : Front: L C R, Side: L R, LFE
Sampling rate : 48.0 KHz
Bit depth : 16 bits
Compression mode : Lossy
Stream size : 404 MiB (14%)
Language : Russian
Default : Yes
Forced : No
Audio #2
ID : 3
Format : DTS
Format/Info : Digital Theater Systems
Mode : 16
Format settings, Endianness : Big
Codec ID : A_DTS
Duration : 37mn 25s
Bit rate mode : Constant
Bit rate : 1 509 Kbps
Channel(s) : 6 channels
Channel positions : Front: L C R, Side: L R, LFE
Sampling rate : 48.0 KHz
Bit depth : 16 bits
Compression mode : Lossy
Delay relative to video : 11ms
Stream size : 404 MiB (14%)
Language : English
Default : No
Forced : No
Text
ID : 4
Format : UTF-8
Codec ID : S_TEXT/UTF8
Codec ID/Info : UTF-8 Plain Text
Language : English
Default : No
Forced : No
Menu
00:00:00.000 : en:Opening
00:02:23.894 : en:Meteor Crater
00:05:52.894 : en:Galaxies Collide
00:07:34.913 : en:Finite Space
00:08:48.486 : en:The Kessler Syndrome
00:10:49.649 : en:Satellite Constellations
00:13:31.894 : en:Modern Communications
00:15:35.643 : en:The Junk Age
00:17:08.861 : en:Birth of a Galaxy
00:18:24.812 : en:Lowell Observatory
00:19:58.197 : en:Earth Rings
00:22:06.158 : en:Space Junk Yard
00:25:26.191 : en:Risk Management
00:28:30.292 : en:Space Salvage
00:31:26.134 : en:Space Dreams

Дополнительно

Перевод и озвучивание осуществлено в рамках сервиса "Озвучивание". Спонсоры: dx2003, lokolex, vkudlaev, mentat, Snow_Leopard, Ex1l, levanevski, Cheetah, alexit2006.
[Профиль] [ЛС]
Кто просматривает тему:

Форум Тема Автор Размер
National Geographic NG: Космическое путешествие "Хаббла" / Hubble's Cosmic Journey (Christopher Riley) [2014 г., Документальный, космос, HDTVRip 720p] skorpionN 1.41 GB
Action Space Trader: Merchant Marine / Космический Торговец [L] [RUS / ENG] (2008) TorrentFilm 125 MB
Игры [Android] Galaxy on Fire 2™ HD + Galaxy on Fire 2™ THD v1.0.3 - 2.0.1 [Космический симулятор, RUS] Richi Keeper 970 MB
Фантастика и фэнтези Авторский сборник - Космические байки (2014) MP3 Swager 374 MB
Фантастика, фэнтези Алекс Орлов (Вадим Дарищев) - Сборник произведений (63 книги) [1998-2015, Боевая фантастика, Космическая фантастика, Фэнтези, FB2] обновлено 13.02.2016 Garik014 81 MB
Фантастика, фэнтези Александр Золотько - Сборник произведений (41 книга) [1998-2016, Боевая фантастика, Детективная фантастика, Космическая фантастика, Фэнтези, Боевик, FB2] обновлено 14.02.2016 Garik014 48 MB
Фантастика, фэнтези Алексей Евтушенко - Сборник произведений (49 книг) 2000-2016 [Боевая фантастика, Космическая фантастика, Исторические приключения, Детективная фантастика, Фэнтези, FB2] обновлено 04.03.2016 Garik014 26 MB
Фантастика, фэнтези Алексей Чижовский - Сборник произведений (9 книг) [2013-2015, Боевая фантастика, Космическая фантастика, Фэнтези, FB2] Garik014 13 MB
Показать сообщения:    

Текущее время: Сегодня 20:26

Часовой пояс: GMT



Вы не можете начинать темы
Вы не можете отвечать на сообщения
Вы не можете редактировать свои сообщения
Вы не можете удалять свои сообщения
Вы не можете голосовать в опросах
Вы не можете прикреплять файлы к сообщениям
Вы не можете скачивать файлы